<?xml  version="1.0" encoding="UTF-8"?>
<!DOCTYPE svg PUBLIC "-//W3C//DTD SVG 1.0//EN" "http://www.w3.org/TR/2001/REC-SVG-20010904/DTD/svg10.dtd" >
<svg xmlns="http://www.w3.org/2000/svg" >
<metadata>
<version>1.0</version>
<id><![CDATA[Frutiger LT W02 45 Light]]></id>
<vendor>Monotype Imaging Inc.</vendor>
<credits>
<name>Fonts.com WebFonts</name>
<URL>http://webfonts.fonts.com</URL>
<role>Home of the Web fonts</role>
</credits>
<license>
<URL>http://webfonts.fonts.com/Legal</URL>
</license>
<copyright><![CDATA[Part of the digitally encoded machine readable outline data for producing the Typefaces provided is copyrighted © 1981 - 2009 Linotype GmbH, www.linotype.com. All rights reserved. This software is the property of Linotype GmbH, and may not be reproduced, used, displayed, modified, disclosed or transferred without the express written approval of Linotype GmbH.  The digitally encoded machine readable software for producing the Typefaces licensed to you is copyrighted (c) 1988, 1990, 1994 Adobe Systems. All Rights Reserved. This software is the property of Adobe Systems Incorporated and its licensors, and may not be reproduced, used, displayed, modified, disclosed or transferred without the express written approval of Adobe. Frutiger is a trademark of Linotype GmbH registered in the U.S. Patent and Trademark Office and may be registered in certain other jurisdictions. This typeface is original artwork of Adrian Frutiger. The design may be protected in certain jurisdictions.]]></copyright>
<trademark><![CDATA[Frutiger is a trademark of Linotype GmbH registered in the U.S. Patent and Trademark Office and may be registered in certain other jurisdictions.]]></trademark>
<licensee>
<name></name>
</licensee>
</metadata>
<defs >
<font horiz-adv-x="501" id="e4d07d96-8993-47b9-9f1d-1e228bf1c529">
<font-face font-family="" panose-1="2 11 3 3 3 5 4 2 2 4" ascent="927" descent="-250" units-per-em="1000" alphabetic="0">
</font-face>
<missing-glyph horiz-adv-x="0" />

<glyph unicode="&#xA;" />
<glyph unicode="&#xD;" horiz-adv-x="0" />
<glyph unicode=" " horiz-adv-x="278" />
<glyph unicode="!" horiz-adv-x="389" d="M154 84H235V0H154V84ZM223 169H166L154 698H235L223 169Z"  />
<glyph unicode="&quot;" horiz-adv-x="556" d="M314 698H377V480H314V698ZM179 698H242V480H179V698Z"  />
<glyph unicode="#" horiz-adv-x="556" d="M358 425H228L207 273H337L358 425ZM138 219H34V273H145L167 425H60V479H174L205 698H266L235 479H365L396 698H457L426 479H522V425H419L398 273H494V219H390L359 0H298L329 219H199L168 0H107L138 219Z"  />
<glyph unicode="$" horiz-adv-x="556" d="M308 771V710Q334 710 371 706Q408 700 443 687L432 624Q383 649 308 650V385Q340 369 370 351Q399 333 422 309Q446 286 460 256Q474 225 474 185Q473 101 425 55Q376 9 308 -6V-89H257V-11Q251 -12 245 -12Q143 -10 87 18L94 89Q153 48 248 48Q252 48 257 49V336Q227 354 196 373Q166 391 141 414Q86 458 85 528Q86 602 135 648Q182 694 257 706V771H308ZM257 645Q215 638 185 610Q154 582 154 530Q154 492 185 465Q213 437 257 413V645ZM308 57Q352 69 378 103Q404 136 405 191Q404 228 378 256Q351 283 308 307V57H308Z"  />
<glyph unicode="%" horiz-adv-x="1000" d="M677 720H735L322 -22H264L677 720ZM168 518Q168 495 173 472Q178 449 188 429Q199 409 218 398Q236 385 263 385Q292 385 311 398Q329 409 339 429Q350 449 354 472Q358 495 358 518Q358 542 354 566Q350 589 339 609Q329 629 311 640Q292 651 263 651Q236 651 218 640Q199 629 188 609Q178 589 173 566Q168 542 168 518ZM105 518Q105 601 143 652Q181 704 263 705Q347 704 385 652Q421 601 421 518Q421 437 385 385Q347 332 263 331Q181 332 143 385Q105 437 105 518ZM642 180Q642 157 647 134Q652 111 662 91Q673 71 692 60Q710 47 737 47Q766 47 785 60Q803 71 813 91Q824 111 828 134Q832 157 832 180Q832 204 828 228Q824 251 813 271Q803 291 785 302Q766 313 737 313Q710 313 692 302Q673 291 662 271Q652 251 647 228Q642 204 642 180ZM579 180Q579 263 617 314Q655 366 737 367Q821 366 859 314Q895 263 895 180Q895 99 859 47Q821 -6 737 -7Q655 -6 617 47Q579 99 579 180Z"  />
<glyph unicode="&amp;" horiz-adv-x="667" d="M193 554Q194 514 219 479Q243 443 272 412Q296 424 320 436Q343 448 363 464Q383 481 395 503Q407 525 407 555Q404 655 308 656Q287 656 267 650Q246 644 229 631Q194 605 193 554ZM250 347Q199 327 161 286Q120 245 119 186Q120 115 169 79Q216 42 281 42Q330 42 376 65Q422 87 453 123L250 347H250ZM492 171Q553 268 552 383H612Q612 242 534 131L653 2H565L491 80Q404 -13 279 -12Q187 -12 121 35Q51 83 50 183Q51 263 98 312Q145 360 215 386Q182 423 154 465Q125 506 124 558Q125 633 184 672Q240 710 312 710Q377 710 426 675Q475 639 476 566Q476 526 462 498Q448 468 424 447Q400 426 370 410Q340 392 308 376L492 171H492Z"  />
<glyph unicode="&apos;" horiz-adv-x="278" d="M108 698H171V480H108V698Z"  />
<glyph unicode="(" horiz-adv-x="278" d="M213 -140Q146 -37 95 73Q43 183 42 308Q43 434 95 544Q146 655 213 756H255Q199 652 154 541Q106 429 105 308Q106 187 154 76Q199 -35 255 -140H213Z"  />
<glyph unicode=")" horiz-adv-x="278" d="M65 756Q134 655 184 544Q234 434 236 308Q234 183 184 73Q134 -37 65 -140H23Q81 -35 126 76Q172 187 173 308Q172 429 126 541Q81 652 23 756H65Z"  />
<glyph unicode="*" horiz-adv-x="556" d="M307 698L300 545L445 601L464 543L317 501L414 382L364 344L278 475L194 344L145 382L239 501L92 543L109 601L256 545L249 698H307Z"  />
<glyph unicode="+" horiz-adv-x="600" d="M46 288H265V507H334V288H553V219H334V0H265V219H46V288Z"  />
<glyph unicode="&#x2c;" horiz-adv-x="278" d="M112 84H196L117 -134H54L112 84Z"  />
<glyph unicode="-" horiz-adv-x="333" d="M41 304H292V235H41V304Z"  />
<glyph unicode="." horiz-adv-x="278" d="M98 84H179V0H98V84Z"  />
<glyph unicode="/" horiz-adv-x="278" d="M240 710H309L38 -12H-31L240 710Z"  />
<glyph unicode="0" horiz-adv-x="556" d="M278 705Q348 704 393 673Q438 641 463 589Q509 479 507 349Q507 294 500 233Q492 171 468 117Q445 63 399 29Q353 -6 278 -7Q205 -6 160 29Q114 63 90 117Q67 171 58 233Q48 294 49 349Q47 479 94 589Q119 641 165 673Q210 704 278 705ZM278 645Q224 644 193 616Q160 587 144 541Q128 495 123 445Q118 393 118 349Q118 305 123 254Q128 204 144 158Q160 112 193 84Q224 53 278 53Q333 53 365 84Q397 112 413 158Q429 204 435 254Q438 305 438 349Q438 393 435 445Q429 495 413 541Q397 587 365 616Q333 644 278 645Z"  />
<glyph unicode="1" horiz-adv-x="556" d="M281 698H343V0H274V620L161 521L123 566L281 698Z"  />
<glyph unicode="2" horiz-adv-x="556" d="M50 60L210 237Q276 308 326 382Q376 455 378 519Q377 576 343 610Q309 644 255 645Q165 644 87 595L75 658Q115 678 162 692Q208 705 251 705Q339 705 395 661Q452 616 453 522Q451 443 391 359Q332 274 261 198L135 60H469V0H50V60Z"  />
<glyph unicode="3" horiz-adv-x="556" d="M150 392H168Q205 392 246 397Q287 401 323 414Q360 428 383 456Q405 484 405 532Q405 562 391 584Q377 605 354 619Q305 645 245 645Q163 644 89 608L83 673Q162 704 252 705Q342 705 407 666Q472 625 474 532Q473 469 434 426Q394 382 329 365V363Q400 359 437 312Q474 266 474 194Q472 99 401 47Q330 -6 222 -7Q133 -8 50 21L58 87Q102 68 146 61Q188 53 226 53Q292 53 348 88Q403 122 405 200Q405 245 386 272Q367 298 338 311Q309 325 277 329Q243 332 214 332H150V392Z"  />
<glyph unicode="4" horiz-adv-x="556" d="M23 229L337 698H425V221H528V161H425V0H356V161H23V229ZM356 629H354L86 221H356V629Z"  />
<glyph unicode="5" horiz-adv-x="556" d="M458 638H169L164 414Q181 420 206 425Q231 429 270 429Q485 426 489 225Q488 109 419 52Q350 -7 235 -7Q158 -7 86 18V89Q157 53 235 53Q307 53 362 92Q418 131 420 211Q420 370 245 369Q164 369 94 347L101 698H458V638Z"  />
<glyph unicode="6" horiz-adv-x="556" d="M290 381Q215 380 174 339Q131 296 131 226Q131 159 168 108Q205 54 281 53Q358 54 399 101Q438 146 438 218Q437 378 290 381ZM279 -7Q210 -6 167 23Q123 51 98 98Q74 145 65 204Q55 262 55 324Q54 487 125 594Q196 703 370 705Q427 704 482 689L476 623Q427 644 361 645Q294 646 249 622Q203 598 175 555Q148 514 136 462Q124 409 124 355H126Q154 400 198 421Q241 441 290 441Q326 441 364 432Q402 422 434 398Q467 374 487 332Q507 289 507 223Q506 120 447 58Q388 -6 279 -7Z"  />
<glyph unicode="7" horiz-adv-x="556" d="M416 638H58V698H484V638L214 0H138L416 638Z"  />
<glyph unicode="8" horiz-adv-x="556" d="M137 536Q137 506 152 484Q166 461 187 443Q209 425 233 412Q257 399 278 388Q329 412 372 447Q394 465 406 488Q418 509 418 536Q417 592 373 619Q330 645 278 645Q222 645 181 618Q138 591 137 536ZM441 185Q441 218 425 242Q410 266 384 282Q360 300 332 313Q303 325 278 337Q248 326 219 314Q190 301 167 283Q144 266 130 241Q115 216 115 179Q115 151 130 128Q144 104 167 87Q216 53 278 53Q342 52 391 83Q440 114 441 185ZM68 542Q68 587 90 618Q110 649 142 668Q210 705 278 705Q363 705 424 667Q485 627 487 542Q485 478 441 435Q396 390 344 363Q418 340 464 300Q509 260 510 179Q508 78 436 36Q366 -7 278 -7Q191 -7 121 39Q88 61 68 97Q46 131 46 179Q47 258 93 300Q138 341 207 363Q152 388 111 431Q69 474 68 542Z"  />
<glyph unicode="9" horiz-adv-x="556" d="M266 317Q342 317 384 361Q425 402 425 472Q425 540 390 592Q353 644 275 645Q198 644 159 599Q118 552 118 480Q118 319 266 317ZM277 705Q347 705 391 677Q436 649 459 602Q484 555 493 496Q501 437 501 374Q502 213 433 105Q361 -5 186 -7Q129 -6 74 9L80 75Q129 53 195 53Q329 57 382 144Q433 232 432 343H430Q403 300 360 279Q316 257 266 257Q231 257 194 268Q156 278 124 302Q92 327 71 369Q49 411 49 475Q49 579 110 642Q170 704 277 705Z"  />
<glyph unicode=":" horiz-adv-x="278" d="M98 84H179V0H98V84ZM179 426H98V510H179V426Z"  />
<glyph unicode=";" horiz-adv-x="278" d="M179 426H98V510H179V426ZM112 84H196L117 -134H54L112 84Z"  />
<glyph unicode="&lt;" horiz-adv-x="600" d="M553 448L123 253L553 58V-8L46 222V284L553 514V448Z"  />
<glyph unicode="=" horiz-adv-x="600" d="M46 187H553V118H46V187ZM46 388H553V319H46V388Z"  />
<glyph unicode="&gt;" horiz-adv-x="600" d="M47 58L478 253L47 448V514L554 284V222L47 -8V58Z"  />
<glyph unicode="?" horiz-adv-x="500" d="M182 84H263V0H182V84ZM86 685Q158 709 232 710Q312 710 367 668Q423 624 424 531Q423 471 398 431Q373 390 339 356Q306 323 281 283Q253 243 253 184V169H190V182Q191 250 217 292Q229 314 244 332Q258 350 273 366Q306 398 330 436Q354 474 355 531Q354 587 320 619Q284 650 229 650Q189 650 156 642Q140 638 123 633Q105 628 89 622L86 685Z"  />
<glyph unicode="@" horiz-adv-x="800" d="M531 266Q521 239 521 217Q521 208 527 202Q531 194 543 194Q572 194 599 212Q625 229 645 258Q689 319 690 408Q688 526 603 588Q519 650 401 650Q273 649 191 566Q107 483 106 350Q107 217 191 134Q273 49 401 48Q576 50 665 159H726Q624 -9 401 -12Q221 -9 131 102Q40 208 40 349Q40 491 131 598Q221 707 401 710Q539 710 645 634Q753 557 756 408Q753 280 675 208Q600 134 530 134Q464 134 451 195H449Q432 173 404 154Q376 134 326 134Q266 135 229 179Q191 221 191 284Q191 386 255 469Q317 552 422 555Q494 556 532 478L553 538H616L531 266ZM266 290Q272 195 338 194Q376 194 406 216Q436 237 457 269Q501 338 502 405Q501 457 476 477Q451 495 422 495Q370 494 320 438Q268 382 266 290Z"  />
<glyph unicode="A" horiz-adv-x="667" d="M181 247H484L333 632L181 247ZM299 698H377L654 0H582L507 187H155L80 0H13L299 698Z"  />
<glyph unicode="B" horiz-adv-x="556" d="M151 393H228Q257 393 287 399Q316 404 341 417Q367 432 382 457Q398 483 398 523Q398 562 384 585Q368 607 345 619Q322 631 296 635Q269 638 246 638H151V393ZM149 60H221Q257 60 292 67Q327 73 356 87Q385 102 402 129Q419 156 419 196Q419 243 402 271Q384 299 354 312Q324 326 287 330Q249 333 210 333H149V60ZM80 698H246Q335 699 400 663Q465 625 467 526Q467 393 340 367V365Q407 353 447 311Q487 269 488 199Q486 87 408 43Q372 21 323 10Q275 0 219 0H80V698Z"  />
<glyph unicode="C" horiz-adv-x="667" d="M565 620Q531 638 490 645Q447 650 409 650Q273 648 200 565Q126 482 126 349Q126 215 199 133Q271 49 409 48Q445 48 490 55Q534 61 565 78L569 18Q538 2 492 -5Q445 -12 409 -12Q243 -10 151 88Q57 185 57 349Q58 511 152 610Q245 708 409 710Q443 710 492 705Q540 699 569 684L565 620Z"  />
<glyph unicode="D" horiz-adv-x="667" d="M80 698H253Q439 696 522 601Q603 506 602 350Q600 163 489 81Q379 0 202 0H80V698ZM149 60H206Q525 53 533 354Q531 512 451 577Q370 639 250 638H149V60Z"  />
<glyph unicode="E" horiz-adv-x="500" d="M86 698H428V638H155V389H414V329H155V60H440V0H86V698Z"  />
<glyph unicode="F" horiz-adv-x="444" d="M77 698H409V638H146V389H397V329H146V0H77V698Z"  />
<glyph unicode="G" horiz-adv-x="722" d="M564 318H402V378H633V31Q529 -13 416 -12Q250 -10 158 88Q64 185 64 349Q65 511 159 610Q252 708 416 710Q459 710 513 703Q566 695 603 677L595 613Q554 635 509 644Q463 650 416 650Q280 648 207 565Q133 482 133 349Q133 215 206 133Q278 49 416 48Q451 48 495 54Q538 58 564 73V318Z"  />
<glyph unicode="H" horiz-adv-x="667" d="M88 698H157V389H510V698H579V0H510V329H157V0H88V698Z"  />
<glyph unicode="I" horiz-adv-x="222" d="M77 698H146V0H77V698Z"  />
<glyph unicode="J" horiz-adv-x="333" d="M250 180Q250 98 212 45Q172 -11 86 -12Q49 -12 14 0V61Q45 48 79 48Q137 49 160 88Q181 126 181 178V698H250V180Z"  />
<glyph unicode="K" horiz-adv-x="611" d="M95 698H164V385L478 698H568L230 369L597 0H502L164 349V0H95V698Z"  />
<glyph unicode="L" horiz-adv-x="444" d="M80 698H149V60H429V0H80V698Z"  />
<glyph unicode="M" horiz-adv-x="889" d="M86 698H193L448 84L704 698H803V0H734V629H732L478 0H419L157 629H155V0H86V698Z"  />
<glyph unicode="N" horiz-adv-x="667" d="M77 698H164L519 84H521V698H590V0H497L148 602H146V0H77V698Z"  />
<glyph unicode="O" horiz-adv-x="722" d="M361 650Q239 647 181 556Q123 465 123 349Q123 233 181 144Q239 50 361 48Q484 50 542 144Q599 233 599 349Q599 465 542 556Q484 647 361 650ZM54 349Q53 496 129 601Q204 707 361 710Q519 707 595 601Q670 496 668 349Q667 186 590 89Q512 -10 361 -12Q211 -10 134 89Q56 186 54 349Z"  />
<glyph unicode="P" horiz-adv-x="500" d="M155 362H203Q243 362 279 367Q315 371 344 384Q373 398 389 426Q405 454 405 500Q403 636 267 638H155V362ZM86 698H258Q469 698 474 500Q473 403 410 353Q348 302 251 302H155V0H86V698Z"  />
<glyph unicode="Q" horiz-adv-x="722" d="M361 650Q239 647 181 556Q123 465 123 349Q123 233 181 144Q239 50 361 48Q484 50 542 144Q599 233 599 349Q599 465 542 556Q484 647 361 650ZM542 -130L418 -7Q391 -12 361 -12Q211 -10 134 89Q56 186 54 349Q53 496 129 601Q204 707 361 710Q519 707 595 601Q670 496 668 349Q665 94 487 12L634 -130H542Z"  />
<glyph unicode="R" horiz-adv-x="556" d="M88 698H268Q468 701 473 517Q472 449 428 408Q384 366 318 356V354Q358 349 376 328Q386 318 393 303Q401 288 408 270L527 0H451L350 236Q322 301 292 317Q277 326 258 328Q239 329 214 329H157V0H88V698ZM157 389H230Q295 388 348 417Q402 446 404 517Q404 560 390 585Q376 610 352 621Q328 633 296 636Q264 638 228 638H157V389Z"  />
<glyph unicode="S" horiz-adv-x="500" d="M67 89Q126 48 221 48Q288 48 333 83Q377 118 378 191Q377 242 328 277Q306 295 277 311Q248 327 218 343Q188 360 160 379Q131 397 108 419Q59 462 58 528Q59 613 123 662Q185 709 279 710Q306 710 343 706Q380 700 416 687L405 624Q354 650 278 650Q251 650 225 645Q199 639 176 624Q155 611 141 588Q127 564 127 530Q127 505 141 484Q155 463 177 447Q200 430 229 415Q257 399 287 382Q350 352 397 306Q420 284 434 254Q447 224 447 185Q445 81 374 34Q304 -12 218 -12Q116 -10 60 18L67 89Z"  />
<glyph unicode="T" horiz-adv-x="500" d="M216 638H10V698H491V638H285V0H216V638Z"  />
<glyph unicode="U" horiz-adv-x="667" d="M587 244Q586 168 563 118Q538 67 500 39Q461 11 418 0Q374 -12 334 -12Q296 -12 253 0Q209 11 170 39Q132 67 107 118Q81 168 81 244V698H150V244Q150 157 197 104Q244 49 334 48Q426 49 472 104Q518 157 518 244V698H587V244Z"  />
<glyph unicode="V" horiz-adv-x="611" d="M340 0H266L6 698H79L304 69L537 698H605L340 0Z"  />
<glyph unicode="W" horiz-adv-x="944" d="M733 0H651L474 620H472L292 0H209L9 698H80L252 78H254L433 698H516L692 78H694L869 698H935L733 0Z"  />
<glyph unicode="X" horiz-adv-x="611" d="M267 367L33 698H114L310 416L508 698H585L350 367L604 0H520L307 318L86 0H7L267 367Z"  />
<glyph unicode="Y" horiz-adv-x="611" d="M271 296L12 698H92L305 357L524 698H599L340 296V0H271V296Z"  />
<glyph unicode="Z" horiz-adv-x="500" d="M21 60L385 638H30V698H458V638L96 60H470V0H21V60Z"  />
<glyph unicode="[" horiz-adv-x="278" d="M69 756H231V708H132V-92H231V-140H69V756Z"  />
<glyph unicode="\" horiz-adv-x="278" d="M309 -12H240L-31 710H38L309 -12Z"  />
<glyph unicode="]" horiz-adv-x="278" d="M209 -140H47V-92H146V708H47V756H209V-140Z"  />
<glyph unicode="^" horiz-adv-x="600" d="M268 698H332L550 265H479L300 629L121 265H50L268 698Z"  />
<glyph unicode="_" horiz-adv-x="500" d="M500 -75V-125H0V-75H500Z"  />
<glyph unicode="`" horiz-adv-x="222" d="M168 572H122L-4 716H75L168 572Z"  />
<glyph unicode="a" horiz-adv-x="500" d="M366 257H348Q307 257 266 255Q223 251 188 238Q153 226 132 201Q109 176 109 134Q109 85 141 64Q171 42 215 42Q270 42 302 64Q333 85 347 114Q362 145 364 175Q366 206 366 226V257ZM372 82H370Q348 37 303 13Q258 -11 208 -12Q155 -11 122 5Q88 20 70 43Q38 93 40 132Q40 196 71 233Q101 270 148 286Q195 303 250 308Q304 311 354 311H366V337Q369 468 250 468Q171 469 100 426V487Q171 520 250 522Q431 524 429 332V107Q428 49 434 0H372V82Z"  />
<glyph unicode="b" horiz-adv-x="556" d="M438 255Q438 293 433 331Q426 369 408 399Q392 431 362 449Q332 468 287 468Q245 468 216 449Q187 429 169 397Q135 330 136 255Q135 182 170 114Q188 82 217 63Q245 42 287 42Q332 42 362 63Q392 82 408 112Q426 144 433 182Q438 219 438 255ZM73 750H136V424H138Q142 435 154 452Q165 468 184 483Q204 500 232 511Q260 522 297 522Q409 521 459 447Q507 374 507 255Q507 140 455 65Q402 -10 297 -12Q188 -13 138 81H136V0H73V750Z"  />
<glyph unicode="c" horiz-adv-x="444" d="M411 442Q357 467 302 468Q210 467 161 409Q110 350 110 255Q110 166 160 106Q209 43 295 42Q354 42 410 65L416 6Q354 -13 285 -12Q162 -10 102 69Q41 146 41 255Q42 376 111 448Q179 521 293 522Q340 522 371 515Q387 512 399 509Q410 505 416 502L411 442Z"  />
<glyph unicode="d" horiz-adv-x="556" d="M118 255Q118 219 125 182Q133 144 149 112Q167 82 196 63Q224 42 269 42Q311 42 341 63Q369 82 387 114Q421 182 420 255Q420 291 413 329Q405 365 387 397Q369 429 341 449Q311 468 269 468Q224 468 196 449Q167 431 149 399Q133 369 125 331Q118 293 118 255ZM483 0H420V81H418Q368 -13 259 -12Q154 -10 102 65Q49 140 49 255Q48 374 98 447Q148 521 259 522Q297 522 325 511Q354 500 373 483Q412 448 418 424H420V750H483V0Z"  />
<glyph unicode="e" horiz-adv-x="500" d="M390 291Q390 361 361 413Q330 466 260 468Q191 466 151 412Q110 358 110 291H390ZM421 16Q349 -11 273 -12Q148 -10 94 65Q40 138 41 255Q42 374 101 448Q158 521 256 522Q363 520 412 447Q459 375 459 269V237H110Q110 154 153 100Q195 43 278 42Q315 42 356 55Q397 66 421 80V16Z"  />
<glyph unicode="f" horiz-adv-x="333" d="M122 456H19V510H122V547Q122 588 126 627Q128 665 141 695Q154 726 182 744Q209 762 257 762Q273 762 290 761Q307 758 316 752L312 697Q291 708 262 708Q231 708 215 694Q198 678 192 655Q186 632 186 606Q185 579 185 554V510H300V456H185V0H122V456Z"  />
<glyph unicode="g" horiz-adv-x="556" d="M483 42Q483 -67 430 -140Q375 -214 244 -216Q194 -215 152 -205Q111 -195 90 -189L95 -126Q158 -160 245 -162Q306 -161 341 -140Q377 -120 394 -84Q412 -48 417 -1Q421 46 421 100H419Q365 -2 264 0Q144 3 96 86Q71 124 61 168Q49 212 49 255Q48 374 98 447Q148 521 259 522Q309 522 347 511Q384 497 418 452H420V510H483V42ZM118 255Q117 177 152 118Q186 56 265 54Q350 56 386 120Q420 182 420 255Q420 350 388 408Q355 467 269 468Q224 468 196 449Q167 431 149 399Q133 369 125 331Q118 293 118 255Z"  />
<glyph unicode="h" horiz-adv-x="556" d="M79 750H142V424H144Q165 467 206 495Q247 521 303 522Q405 521 442 462Q478 402 477 305V0H414V304Q414 338 410 368Q406 397 393 419Q369 467 293 468Q211 466 176 405Q141 344 142 273V0H79V750Z"  />
<glyph unicode="i" horiz-adv-x="222" d="M142 646H79V730H142V646ZM79 510H142V0H79V510Z"  />
<glyph unicode="j" horiz-adv-x="222" d="M142 646H79V730H142V646ZM-28 -156Q-11 -161 10 -162Q57 -161 69 -132Q80 -104 79 -64V510H142V-72Q143 -135 120 -174Q107 -193 85 -204Q61 -216 27 -216Q-13 -215 -28 -211V-156Z"  />
<glyph unicode="k" horiz-adv-x="500" d="M79 750H142V301L370 510H451L202 284L481 0H394L142 262V0H79V750Z"  />
<glyph unicode="l" horiz-adv-x="222" d="M79 750H142V0H79V750Z"  />
<glyph unicode="m" horiz-adv-x="833" d="M695 0V339Q695 367 691 391Q685 414 672 431Q660 449 639 459Q618 468 587 468Q534 468 493 424Q451 378 450 282V0H387V339Q387 367 383 391Q377 414 364 431Q352 449 331 459Q310 468 279 468Q226 468 185 424Q143 378 142 282V0H79V390Q79 449 75 510H136V424L138 423Q145 437 157 454Q167 471 185 486Q203 501 230 512Q257 522 297 522Q315 522 336 518Q356 514 376 502Q396 491 411 470Q426 448 432 414H434Q453 460 495 491Q536 521 597 522Q675 521 717 474Q758 428 758 351V0H695Z"  />
<glyph unicode="n" horiz-adv-x="556" d="M79 390Q79 449 75 510H136V419H138Q147 437 159 455Q171 473 189 488Q208 504 236 513Q264 522 303 522Q397 521 438 466Q477 412 477 326V0H414V310Q414 383 387 426Q358 467 293 468Q209 466 175 408Q157 381 150 349Q142 316 142 282V0H79V390Z"  />
<glyph unicode="o" horiz-adv-x="556" d="M109 255Q109 164 153 105Q195 43 278 42Q361 43 405 105Q447 164 447 255Q447 346 405 407Q361 467 278 468Q195 467 153 407Q109 346 109 255ZM40 255Q40 364 98 441Q156 520 278 522Q402 520 460 441Q516 364 516 255Q516 148 460 70Q402 -10 278 -12Q156 -10 98 70Q40 148 40 255Z"  />
<glyph unicode="p" horiz-adv-x="556" d="M438 255Q438 293 433 331Q426 369 408 399Q392 431 362 449Q332 468 287 468Q245 468 217 449Q188 429 170 397Q152 365 145 329Q136 291 136 255Q135 182 170 114Q188 82 217 63Q245 42 287 42Q332 42 362 63Q392 82 408 112Q426 144 433 182Q438 219 438 255ZM73 510H136L132 417H134Q140 428 152 447Q163 464 182 481Q201 498 229 511Q257 522 297 522Q409 521 459 447Q507 374 507 255Q507 140 455 65Q402 -10 297 -12Q181 -12 138 87H136V-210H73V510Z"  />
<glyph unicode="q" horiz-adv-x="556" d="M118 255Q118 219 125 182Q133 144 149 112Q167 82 196 63Q224 42 269 42Q311 42 341 63Q369 82 387 114Q421 182 420 255Q420 291 413 329Q405 365 387 397Q369 429 341 449Q311 468 269 468Q224 468 196 449Q167 431 149 399Q133 369 125 331Q118 293 118 255ZM483 -210H420V87H418Q375 -12 259 -12Q154 -10 102 65Q49 140 49 255Q48 374 98 447Q148 521 259 522Q299 522 329 511Q357 499 375 482Q394 465 404 450Q414 435 418 427H420V510H483V-210Z"  />
<glyph unicode="r" horiz-adv-x="333" d="M79 396Q79 467 75 510H138V412H140Q158 457 191 489Q223 521 271 522Q296 521 315 516V450Q294 456 269 456Q232 455 208 438Q184 420 169 389Q155 359 149 324Q142 287 142 252V0H79V396Z"  />
<glyph unicode="s" horiz-adv-x="389" d="M40 74Q98 43 173 42Q220 42 253 67Q285 90 286 133Q285 178 249 204Q213 229 164 249Q141 260 120 272Q99 284 80 299Q63 315 52 336Q41 356 41 383Q42 459 93 491Q142 522 207 522Q229 522 264 518Q299 512 333 499L327 444Q272 467 214 468Q165 468 136 450Q121 441 113 425Q104 409 104 383Q104 367 115 353Q126 340 144 329Q162 319 185 308Q208 298 230 286Q280 265 317 230Q354 195 355 133Q355 93 339 66Q322 38 296 21Q240 -12 177 -12Q103 -12 34 12L40 74H40Z"  />
<glyph unicode="t" horiz-adv-x="333" d="M299 456H183V126Q183 91 199 67Q214 42 251 42Q285 42 309 54L313 2Q302 -2 282 -7Q261 -12 236 -12Q195 -12 171 2Q148 16 136 39Q126 63 123 93Q120 123 120 158V456H20V510H120V633L183 655V510H299V456Z"  />
<glyph unicode="u" horiz-adv-x="556" d="M477 120Q476 62 481 0H420V91H418Q411 74 399 57Q387 39 368 23Q349 8 321 -1Q293 -12 253 -12Q160 -11 119 44Q78 98 79 184V510H142V200Q142 127 171 86Q199 42 263 42Q306 42 336 60Q366 77 382 104Q400 132 407 164Q414 196 414 228V510H477V120Z"  />
<glyph unicode="v" horiz-adv-x="444" d="M256 0H182L9 510H78L219 69H221L369 510H435L256 0Z"  />
<glyph unicode="w" horiz-adv-x="778" d="M603 0H527L388 441H386L247 0H171L7 510H76L210 69H212L354 510H430L565 69H567L708 510H771L603 0Z"  />
<glyph unicode="x" horiz-adv-x="444" d="M187 270L25 510H103L224 320L347 510H419L261 270L436 0H358L224 220L81 0H8L187 270Z"  />
<glyph unicode="y" horiz-adv-x="444" d="M221 85H222L369 510H435L231 -76Q214 -131 184 -172Q169 -192 148 -203Q127 -215 100 -216Q65 -216 32 -208L38 -154Q47 -157 58 -159Q69 -162 85 -162Q124 -161 144 -130Q164 -101 177 -51L190 -6L9 510H78L221 85Z"  />
<glyph unicode="z" horiz-adv-x="444" d="M32 53L339 456H44V510H412V456L105 54H412V0H32V53Z"  />
<glyph unicode="{" horiz-adv-x="278" d="M273 708H223Q199 707 189 680Q179 653 179 615V450Q179 414 170 389Q160 362 146 346Q116 313 95 309V307Q105 306 119 297Q133 288 146 272Q160 256 170 229Q179 202 179 164V2Q179 -35 189 -62Q199 -91 223 -92H273V-140H217Q174 -139 146 -107Q117 -75 116 -18V152Q116 208 98 245Q79 283 38 284V332Q79 333 98 373Q116 410 116 467V635Q116 694 147 725Q175 756 218 756H273V708Z"  />
<glyph unicode="|" horiz-adv-x="222" d="M146 750V-250H77V750H146Z"  />
<glyph unicode="}" horiz-adv-x="278" d="M5 -92H55Q79 -91 89 -63Q99 -36 99 1V166Q99 204 110 229Q119 255 133 271Q163 303 183 307V309Q175 312 161 321Q147 330 133 346Q119 362 110 389Q99 415 99 452V614Q99 653 89 680Q79 707 55 708H5V756H61Q105 756 133 725Q161 693 162 634V464Q162 409 181 371Q200 333 240 332V284Q200 283 181 245Q162 206 162 149V-19Q161 -76 133 -108Q105 -140 60 -140H5V-92Z"  />
<glyph unicode="~" horiz-adv-x="600" d="M531 273Q515 240 486 213Q471 200 452 192Q431 182 406 182Q379 182 350 194Q321 205 292 219Q234 253 193 255Q164 254 143 233Q123 211 105 182L69 233Q85 266 115 295Q145 323 194 324Q222 324 252 313Q281 302 308 288Q337 274 363 263Q387 251 407 251Q437 252 458 275Q479 296 495 324L531 273Z"  />
<glyph unicode="&#xA0;" horiz-adv-x="278" />
<glyph unicode="&#xA1;" horiz-adv-x="389" d="M235 426H154V510H235V426ZM166 341H223L235 -188H154L166 341Z"  />
<glyph unicode="&#xA2;" horiz-adv-x="556" d="M454 588L429 514Q461 507 474 502L469 442Q456 448 442 453Q427 458 412 461L278 59Q313 42 353 42Q412 42 468 65L474 6Q412 -13 343 -12Q298 -12 259 2L228 -91H181L218 19Q159 53 129 116Q99 179 99 255Q100 376 169 448Q237 521 351 522Q369 522 385 520L407 588H454ZM367 467Q363 468 360 468Q268 467 219 409Q168 350 168 255Q169 145 239 83L367 467Z"  />
<glyph unicode="&#xA3;" horiz-adv-x="556" d="M67 60H170V347H79V401H170V450Q170 462 172 474Q172 486 173 498Q174 510 177 522Q179 534 180 544Q186 567 195 588Q202 608 214 626Q260 703 389 705Q471 703 501 684L491 622Q478 632 452 638Q427 645 389 645Q340 645 310 628Q280 609 264 580Q250 551 244 516Q239 479 239 444V401H405V347H239V60H485V0H67V60Z"  />
<glyph unicode="&#xA4;" horiz-adv-x="556" d="M278 161Q359 162 408 218Q456 272 457 349Q456 426 408 481Q359 536 278 537Q200 532 151 479Q100 425 99 349Q100 266 151 213Q201 160 278 161ZM84 196Q30 264 30 349Q30 390 43 429Q56 468 84 500L27 555L70 600L127 544Q194 596 278 597Q365 596 430 544L484 600L529 555L475 500Q526 434 526 349Q526 263 475 196L529 141L484 98L430 154Q367 101 278 101Q191 101 127 154L70 98L27 141L84 196Z"  />
<glyph unicode="&#xA5;" horiz-adv-x="556" d="M244 175H100V223H244V298L241 304H100V352H214L19 698H95L278 361L466 698H537L343 352H457V304H316L313 298V223H457V175H313V0H244V175Z"  />
<glyph unicode="&#xA6;" horiz-adv-x="222" d="M146 175V-175H77V175H146ZM146 675V325H77V675H146Z"  />
<glyph unicode="&#xA7;" horiz-adv-x="556" d="M226 423L219 419Q204 411 182 383Q159 354 158 314Q158 288 176 268Q193 247 223 234L340 183L361 204Q398 236 399 283Q398 325 375 346Q363 358 348 366Q331 375 313 382L226 423ZM414 630Q397 640 364 648Q330 656 295 656Q255 656 212 638Q192 628 179 611Q164 595 164 571Q165 524 212 498Q256 471 314 449Q374 428 418 393Q463 358 464 295Q463 250 442 219Q420 188 389 159Q422 143 444 113Q466 83 467 41Q467 -7 445 -38Q423 -69 391 -87Q359 -105 325 -112Q290 -120 264 -120Q177 -120 95 -92L102 -33Q179 -66 264 -66Q312 -66 354 -40Q397 -15 398 39Q398 63 386 80Q372 97 351 109Q305 133 244 154Q184 175 138 211Q90 246 89 310Q89 350 114 383Q138 414 168 439L177 447L170 451Q139 469 118 496Q95 521 95 560Q97 642 157 677Q214 710 276 710Q323 710 361 703Q398 696 421 688L414 630Z"  />
<glyph unicode="&#xA8;" horiz-adv-x="222" d="M-12 730H63V646H-12V730ZM159 730H234V646H159V730Z"  />
<glyph unicode="&#xA9;" horiz-adv-x="800" d="M39 349Q41 503 146 605Q248 708 400 710Q554 708 656 605Q759 503 761 349Q759 197 656 95Q554 -10 400 -12Q248 -10 146 95Q41 197 39 349ZM591 280Q553 127 413 124Q314 125 257 190Q198 252 197 349Q197 449 254 511Q310 574 410 575Q481 575 530 537Q578 499 590 424H530Q521 469 490 495Q460 521 411 521Q340 520 304 473Q266 427 266 350Q266 279 306 230Q345 179 413 178Q462 178 492 207Q522 235 530 280H591ZM108 349Q109 217 192 131Q273 43 401 42Q528 43 609 131Q691 217 692 349Q691 483 609 568Q528 654 401 656Q273 654 192 568Q109 483 108 349Z"  />
<glyph unicode="&#xAA;" horiz-adv-x="325" d="M238 548H226Q201 548 175 547Q149 544 126 537Q76 523 75 484Q75 456 96 443Q115 430 144 430Q180 429 200 440Q219 451 228 468Q237 485 238 502Q238 519 238 530V548ZM242 444H240Q229 418 201 404Q173 388 139 388Q77 388 51 414Q23 438 24 479Q24 519 45 542Q64 565 95 575Q126 585 162 588Q197 590 230 590H238V605Q238 614 237 626Q236 637 228 646Q222 657 207 663Q192 668 167 668Q115 668 69 644V690Q89 698 116 704Q142 710 173 710Q290 709 289 596V461Q288 427 292 396H242V444Z"  />
<glyph unicode="&#xAB;" horiz-adv-x="556" d="M332 269L465 64H406L266 269L406 474H465L332 269ZM157 269L290 64H231L91 269L231 474H290L157 269Z"  />
<glyph unicode="&#xAC;" horiz-adv-x="600" d="M46 388H553V114H484V319H46V388Z"  />
<glyph unicode="&#xAD;" horiz-adv-x="333" d="M41 304H292V235H41V304Z"  />
<glyph unicode="&#xAE;" horiz-adv-x="800" d="M331 379H413Q454 378 477 392Q500 406 500 445Q499 481 474 495Q447 507 413 507H331V379ZM262 561H424Q569 561 569 442Q569 390 540 359Q511 325 460 325L580 138H507L389 325H331V138H262V561ZM108 349Q109 217 192 131Q273 43 401 42Q528 43 609 131Q691 217 692 349Q691 483 609 568Q528 654 401 656Q273 654 192 568Q109 483 108 349ZM39 349Q41 503 146 605Q248 708 400 710Q554 708 656 605Q759 503 761 349Q759 197 656 95Q554 -10 400 -12Q248 -10 146 95Q41 197 39 349Z"  />
<glyph unicode="&#xAF;" horiz-adv-x="222" d="M-11 668H233V614H-11V668Z"  />
<glyph unicode="&#xB0;" horiz-adv-x="400" d="M200 705Q267 704 312 664Q357 624 358 556Q357 489 312 449Q267 408 200 407Q135 408 90 449Q43 489 42 556Q43 624 90 664Q135 704 200 705ZM200 657Q154 657 124 631Q93 604 93 556Q94 513 126 485Q158 455 200 455Q244 455 275 485Q306 513 307 556Q306 604 277 631Q248 657 200 657Z"  />
<glyph unicode="&#xB1;" horiz-adv-x="600" d="M46 69H553V0H46V69ZM46 338H265V507H334V338H553V269H334V100H265V269H46V338Z"  />
<glyph unicode="&#xB2;" horiz-adv-x="361" d="M45 325L151 420Q194 461 225 504Q255 547 256 586Q256 621 234 639Q212 657 178 657Q120 656 69 627L61 677Q117 704 178 705Q236 705 275 679Q312 651 313 589Q312 528 274 482Q236 434 194 397L120 332H317V284H45V325Z"  />
<glyph unicode="&#xB3;" horiz-adv-x="361" d="M99 524H127Q144 524 167 527Q190 529 211 536Q233 543 248 558Q262 573 262 596Q260 637 225 648Q191 658 162 657Q105 656 59 634L55 686Q81 697 115 701Q148 705 174 705Q228 705 273 682Q295 670 307 650Q319 629 319 600Q319 563 293 537Q267 511 224 502V500Q272 497 297 469Q321 439 321 396Q319 334 267 306Q216 277 154 277Q89 276 34 294L39 346Q98 324 159 325Q201 325 232 346Q263 366 264 402Q265 430 251 446Q237 461 214 467Q166 477 127 476H99V524Z"  />
<glyph unicode="&#xB4;" horiz-adv-x="222" d="M146 716H225L99 572H53L146 716Z"  />
<glyph unicode="&#xB5;" horiz-adv-x="556" d="M79 510H142V200Q142 127 171 86Q199 42 263 42Q306 42 336 60Q366 77 382 104Q400 132 407 164Q414 196 414 228V510H477V120Q476 62 481 0H420V91H418Q411 74 399 57Q387 39 368 23Q349 8 321 -1Q293 -12 253 -12Q194 -12 142 17V-210H79V510Z"  />
<glyph unicode="&#xB6;" horiz-adv-x="600" d="M256 320Q164 321 107 375Q49 426 48 506Q52 699 276 698H516V-108H453V644H319V-108H256V320Z"  />
<glyph unicode="&#xB7;" horiz-adv-x="278" d="M92 311Q92 335 108 347Q123 359 140 359Q158 359 172 347Q186 335 187 311Q186 288 172 276Q158 264 140 264Q123 264 108 276Q92 288 92 311Z"  />
<glyph unicode="&#xB8;" horiz-adv-x="222" d="M104 0H131L112 -54Q127 -51 145 -51Q176 -51 197 -67Q217 -84 218 -116Q216 -158 181 -172Q145 -185 108 -185Q75 -184 45 -174Q15 -165 7 -163L14 -126Q25 -133 50 -143Q75 -154 103 -155Q153 -155 155 -118Q154 -81 117 -81Q96 -81 75 -85L104 0Z"  />
<glyph unicode="&#xB9;" horiz-adv-x="361" d="M232 284H175V650L99 592L77 625L180 705H232V284Z"  />
<glyph unicode="&#xBA;" horiz-adv-x="361" d="M74 548Q74 496 103 464Q131 430 181 430Q233 430 260 464Q287 496 287 548Q287 598 260 632Q233 667 181 668Q131 667 103 632Q74 598 74 548ZM23 548Q23 615 61 662Q99 709 181 710Q263 708 302 663Q338 617 338 548Q338 485 302 439Q263 392 181 388Q99 390 61 437Q23 483 23 548Z"  />
<glyph unicode="&#xBB;" horiz-adv-x="556" d="M224 269L91 474H150L290 269L150 64H91L224 269ZM399 269L266 474H325L465 269L325 64H266L399 269Z"  />
<glyph unicode="&#xBC;" horiz-adv-x="834" d="M431 140L639 421H707V139H763V91H707V0H650V91H431V140ZM650 352H648L488 139H650V352ZM226 284H169V650L93 592L71 625L174 705H226V284ZM573 720H630L187 -22H130L573 720Z"  />
<glyph unicode="&#xBD;" horiz-adv-x="834" d="M503 41L609 136Q652 177 683 220Q713 263 714 302Q714 337 692 355Q670 373 636 373Q578 372 527 343L519 393Q575 420 636 421Q694 421 733 395Q770 367 771 305Q770 244 732 198Q694 150 652 113L578 48H775V0H503V41ZM214 284H157V650L81 592L59 625L162 705H214V284ZM560 720H617L174 -22H117L560 720Z"  />
<glyph unicode="&#xBE;" horiz-adv-x="834" d="M118 524H146Q163 524 186 527Q209 529 230 536Q252 543 267 558Q281 573 281 596Q279 637 244 648Q210 658 181 657Q124 656 78 634L74 686Q100 697 134 701Q167 705 193 705Q247 705 292 682Q314 670 326 650Q338 629 338 600Q338 563 312 537Q286 511 243 502V500Q291 497 316 469Q340 439 340 396Q338 334 286 306Q235 277 173 277Q108 276 53 294L58 346Q117 324 178 325Q220 325 251 346Q282 366 283 402Q284 430 270 446Q256 461 233 467Q185 477 146 476H118V524ZM450 140L658 421H726V139H782V91H726V0H669V91H450V140ZM669 352H667L507 139H669V352ZM650 720H708L265 -22H207L650 720Z"  />
<glyph unicode="&#xBF;" horiz-adv-x="500" d="M318 426H237V510H318V426ZM414 -175Q343 -199 268 -200Q189 -200 134 -156Q77 -113 76 -21Q76 41 104 82Q129 122 162 155Q196 189 221 228Q246 267 247 326V341H310V328Q309 262 285 220Q261 178 228 146Q213 130 199 113Q184 95 172 76Q146 38 145 -21Q145 -77 182 -107Q216 -139 271 -140Q312 -139 346 -131Q380 -123 411 -112L414 -175Z"  />
<glyph unicode="&#xC0;" horiz-adv-x="667" d="M181 247H484L333 632L181 247ZM299 698H377L654 0H582L507 187H155L80 0H13L299 698ZM387 738H341L215 882H294L387 738Z"  />
<glyph unicode="&#xC1;" horiz-adv-x="667" d="M181 247H484L333 632L181 247ZM299 698H377L654 0H582L507 187H155L80 0H13L299 698ZM386 882H465L339 738H293L386 882Z"  />
<glyph unicode="&#xC2;" horiz-adv-x="667" d="M181 247H484L333 632L181 247ZM299 698H377L654 0H582L507 187H155L80 0H13L299 698ZM299 882H381L474 738H428L340 840L252 738H206L299 882Z"  />
<glyph unicode="&#xC3;" horiz-adv-x="667" d="M181 247H484L333 632L181 247ZM299 698H377L654 0H582L507 187H155L80 0H13L299 698ZM204 755Q212 790 231 817Q251 844 285 845Q316 844 346 833Q376 821 390 820Q407 820 421 829Q434 838 439 854H476Q467 801 441 783Q414 765 393 766Q358 767 331 779Q304 790 284 791Q265 791 257 782Q247 773 240 755H204Z"  />
<glyph unicode="&#xC4;" horiz-adv-x="667" d="M181 247H484L333 632L181 247ZM299 698H377L654 0H582L507 187H155L80 0H13L299 698ZM217 842H292V758H217V842ZM388 842H463V758H388V842Z"  />
<glyph unicode="&#xC5;" horiz-adv-x="667" d="M181 247H484L333 632L181 247ZM299 698H377L654 0H582L507 187H155L80 0H13L299 698ZM281 816Q281 790 299 775Q316 757 341 757Q367 757 384 775Q401 790 401 816Q401 842 384 859Q367 875 341 875Q316 875 299 859Q281 842 281 816ZM245 816Q245 858 273 884Q300 910 341 911Q382 910 410 884Q436 858 437 816Q436 775 410 749Q382 721 341 721Q300 721 273 749Q245 775 245 816Z"  />
<glyph unicode="&#xC6;" horiz-adv-x="889" d="M436 698H817V638H546V389H803V329H546V60H829V0H478V187H192L76 0H0L436 698ZM477 644H475L229 247H477V644Z"  />
<glyph unicode="&#xC7;" horiz-adv-x="667" d="M565 620Q531 638 490 645Q447 650 409 650Q273 648 200 565Q126 482 126 349Q126 215 199 133Q271 49 409 48Q445 48 490 55Q534 61 565 78L569 18Q538 2 492 -5Q445 -12 409 -12Q401 -12 395 -11L380 -54Q395 -51 413 -51Q444 -51 465 -67Q485 -84 486 -116Q484 -158 449 -172Q413 -185 376 -185Q343 -184 313 -174Q283 -165 275 -163L282 -126Q293 -133 318 -143Q343 -154 371 -155Q421 -155 423 -118Q422 -81 385 -81Q364 -81 343 -85L368 -9Q220 5 140 101Q57 196 57 349Q58 511 152 610Q245 708 409 710Q443 710 492 705Q540 699 569 684L565 620H565Z"  />
<glyph unicode="&#xC8;" horiz-adv-x="500" d="M86 698H428V638H155V389H414V329H155V60H440V0H86V698ZM299 738H253L127 882H206L299 738Z"  />
<glyph unicode="&#xC9;" horiz-adv-x="500" d="M86 698H428V638H155V389H414V329H155V60H440V0H86V698ZM297 882H376L250 738H204L297 882Z"  />
<glyph unicode="&#xCA;" horiz-adv-x="500" d="M86 698H428V638H155V389H414V329H155V60H440V0H86V698ZM209 882H291L384 738H338L250 840L162 738H116L209 882Z"  />
<glyph unicode="&#xCB;" horiz-adv-x="500" d="M86 698H428V638H155V389H414V329H155V60H440V0H86V698ZM129 842H204V758H129V842ZM300 842H375V758H300V842Z"  />
<glyph unicode="&#xCC;" horiz-adv-x="222" d="M77 698H146V0H77V698ZM160 738H114L-12 882H67L160 738Z"  />
<glyph unicode="&#xCD;" horiz-adv-x="222" d="M77 698H146V0H77V698ZM155 882H234L108 738H62L155 882Z"  />
<glyph unicode="&#xCE;" horiz-adv-x="222" d="M77 698H146V0H77V698ZM68 882H150L243 738H197L109 840L21 738H-25L68 882Z"  />
<glyph unicode="&#xCF;" horiz-adv-x="222" d="M77 698H146V0H77V698ZM-12 842H63V758H-12V842ZM159 842H234V758H159V842Z"  />
<glyph unicode="&#xD0;" horiz-adv-x="667" d="M149 389H362V329H149V60H206Q525 53 533 354Q532 519 441 580Q350 639 195 638H149V389ZM80 698H198Q595 704 602 350Q600 163 489 81Q379 0 202 0H80V329H11V389H80V698Z"  />
<glyph unicode="&#xD1;" horiz-adv-x="667" d="M77 698H164L519 84H521V698H590V0H497L148 602H146V0H77V698ZM203 755Q211 790 230 817Q250 844 284 845Q315 844 345 833Q375 821 389 820Q406 820 420 829Q433 838 438 854H475Q466 801 440 783Q413 765 392 766Q357 767 330 779Q303 790 283 791Q264 791 256 782Q246 773 239 755H203Z"  />
<glyph unicode="&#xD2;" horiz-adv-x="722" d="M361 650Q239 647 181 556Q123 465 123 349Q123 233 181 144Q239 50 361 48Q484 50 542 144Q599 233 599 349Q599 465 542 556Q484 647 361 650ZM54 349Q53 496 129 601Q204 707 361 710Q519 707 595 601Q670 496 668 349Q667 186 590 89Q512 -10 361 -12Q211 -10 134 89Q56 186 54 349ZM415 738H369L243 882H322L415 738Z"  />
<glyph unicode="&#xD3;" horiz-adv-x="722" d="M361 650Q239 647 181 556Q123 465 123 349Q123 233 181 144Q239 50 361 48Q484 50 542 144Q599 233 599 349Q599 465 542 556Q484 647 361 650ZM54 349Q53 496 129 601Q204 707 361 710Q519 707 595 601Q670 496 668 349Q667 186 590 89Q512 -10 361 -12Q211 -10 134 89Q56 186 54 349ZM412 882H491L365 738H319L412 882Z"  />
<glyph unicode="&#xD4;" horiz-adv-x="722" d="M361 650Q239 647 181 556Q123 465 123 349Q123 233 181 144Q239 50 361 48Q484 50 542 144Q599 233 599 349Q599 465 542 556Q484 647 361 650ZM54 349Q53 496 129 601Q204 707 361 710Q519 707 595 601Q670 496 668 349Q667 186 590 89Q512 -10 361 -12Q211 -10 134 89Q56 186 54 349ZM323 882H405L498 738H452L364 840L276 738H230L323 882Z"  />
<glyph unicode="&#xD5;" horiz-adv-x="722" d="M361 650Q239 647 181 556Q123 465 123 349Q123 233 181 144Q239 50 361 48Q484 50 542 144Q599 233 599 349Q599 465 542 556Q484 647 361 650ZM54 349Q53 496 129 601Q204 707 361 710Q519 707 595 601Q670 496 668 349Q667 186 590 89Q512 -10 361 -12Q211 -10 134 89Q56 186 54 349ZM230 755Q238 790 257 817Q277 844 311 845Q342 844 372 833Q402 821 416 820Q433 820 447 829Q460 838 465 854H502Q493 801 467 783Q440 765 419 766Q384 767 357 779Q330 790 310 791Q291 791 283 782Q273 773 266 755H230Z"  />
<glyph unicode="&#xD6;" horiz-adv-x="722" d="M361 650Q239 647 181 556Q123 465 123 349Q123 233 181 144Q239 50 361 48Q484 50 542 144Q599 233 599 349Q599 465 542 556Q484 647 361 650ZM54 349Q53 496 129 601Q204 707 361 710Q519 707 595 601Q670 496 668 349Q667 186 590 89Q512 -10 361 -12Q211 -10 134 89Q56 186 54 349ZM243 842H318V758H243V842ZM414 842H489V758H414V842Z"  />
<glyph unicode="&#xD7;" horiz-adv-x="600" d="M71 437L120 486L301 305L480 486L530 437L350 257L530 76L480 26L301 208L120 26L71 76L252 257L71 437Z"  />
<glyph unicode="&#xD8;" horiz-adv-x="722" d="M693 694L602 589Q670 489 668 349Q667 186 590 89Q512 -10 361 -12Q224 -11 149 71L68 -22L29 11L117 112Q56 204 54 349Q53 496 129 601Q204 707 361 710Q493 709 568 629L654 727L693 694ZM196 124Q253 50 361 48Q484 50 542 144Q599 233 599 349Q599 450 554 534L196 124ZM523 577Q465 648 361 650Q239 647 181 556Q123 465 123 349Q123 250 166 169L523 577Z"  />
<glyph unicode="&#xD9;" horiz-adv-x="667" d="M587 244Q586 168 563 118Q538 67 500 39Q461 11 418 0Q374 -12 334 -12Q296 -12 253 0Q209 11 170 39Q132 67 107 118Q81 168 81 244V698H150V244Q150 157 197 104Q244 49 334 48Q426 49 472 104Q518 157 518 244V698H587V244ZM387 738H341L215 882H294L387 738Z"  />
<glyph unicode="&#xDA;" horiz-adv-x="667" d="M587 244Q586 168 563 118Q538 67 500 39Q461 11 418 0Q374 -12 334 -12Q296 -12 253 0Q209 11 170 39Q132 67 107 118Q81 168 81 244V698H150V244Q150 157 197 104Q244 49 334 48Q426 49 472 104Q518 157 518 244V698H587V244ZM383 882H462L336 738H290L383 882Z"  />
<glyph unicode="&#xDB;" horiz-adv-x="667" d="M587 244Q586 168 563 118Q538 67 500 39Q461 11 418 0Q374 -12 334 -12Q296 -12 253 0Q209 11 170 39Q132 67 107 118Q81 168 81 244V698H150V244Q150 157 197 104Q244 49 334 48Q426 49 472 104Q518 157 518 244V698H587V244ZM296 882H378L471 738H425L337 840L249 738H203L296 882Z"  />
<glyph unicode="&#xDC;" horiz-adv-x="667" d="M587 244Q586 168 563 118Q538 67 500 39Q461 11 418 0Q374 -12 334 -12Q296 -12 253 0Q209 11 170 39Q132 67 107 118Q81 168 81 244V698H150V244Q150 157 197 104Q244 49 334 48Q426 49 472 104Q518 157 518 244V698H587V244ZM215 842H290V758H215V842ZM386 842H461V758H386V842Z"  />
<glyph unicode="&#xDD;" horiz-adv-x="611" d="M271 296L12 698H92L305 357L524 698H599L340 296V0H271V296ZM357 882H436L310 738H264L357 882Z"  />
<glyph unicode="&#xDE;" horiz-adv-x="500" d="M155 232H203Q243 232 279 237Q315 241 344 254Q373 268 389 296Q405 324 405 370Q403 506 267 508H155V232ZM86 698H155V568H258Q469 568 474 370Q473 273 410 223Q348 172 251 172H155V0H86V698Z"  />
<glyph unicode="&#xDF;" horiz-adv-x="556" d="M79 542Q79 641 128 701Q177 761 279 762Q463 758 468 576Q466 435 334 402V400Q505 380 506 215Q505 117 449 57Q392 -6 289 -7Q273 -7 250 -4Q226 -2 204 5L208 64Q244 46 290 47Q362 48 400 95Q437 140 437 214Q436 301 385 335Q334 367 246 367H236V421H254Q319 421 359 463Q398 504 399 574Q399 633 368 670Q336 707 279 708Q252 708 228 701Q204 692 184 671Q166 650 155 614Q142 577 142 520V0H79V542Z"  />
<glyph unicode="&#xE0;" horiz-adv-x="500" d="M366 257H348Q307 257 266 255Q223 251 188 238Q153 226 132 201Q109 176 109 134Q109 85 141 64Q171 42 215 42Q270 42 302 64Q333 85 347 114Q362 145 364 175Q366 206 366 226V257ZM372 82H370Q348 37 303 13Q258 -11 208 -12Q155 -11 122 5Q88 20 70 43Q38 93 40 132Q40 196 71 233Q101 270 148 286Q195 303 250 308Q304 311 354 311H366V337Q369 468 250 468Q171 469 100 426V487Q171 520 250 522Q431 524 429 332V107Q428 49 434 0H372V82ZM309 567H263L137 711H216L309 567Z"  />
<glyph unicode="&#xE1;" horiz-adv-x="500" d="M366 257H348Q307 257 266 255Q223 251 188 238Q153 226 132 201Q109 176 109 134Q109 85 141 64Q171 42 215 42Q270 42 302 64Q333 85 347 114Q362 145 364 175Q366 206 366 226V257ZM372 82H370Q348 37 303 13Q258 -11 208 -12Q155 -11 122 5Q88 20 70 43Q38 93 40 132Q40 196 71 233Q101 270 148 286Q195 303 250 308Q304 311 354 311H366V337Q369 468 250 468Q171 469 100 426V487Q171 520 250 522Q431 524 429 332V107Q428 49 434 0H372V82ZM287 711H366L240 567H194L287 711Z"  />
<glyph unicode="&#xE2;" horiz-adv-x="500" d="M366 257H348Q307 257 266 255Q223 251 188 238Q153 226 132 201Q109 176 109 134Q109 85 141 64Q171 42 215 42Q270 42 302 64Q333 85 347 114Q362 145 364 175Q366 206 366 226V257ZM372 82H370Q348 37 303 13Q258 -11 208 -12Q155 -11 122 5Q88 20 70 43Q38 93 40 132Q40 196 71 233Q101 270 148 286Q195 303 250 308Q304 311 354 311H366V337Q369 468 250 468Q171 469 100 426V487Q171 520 250 522Q431 524 429 332V107Q428 49 434 0H372V82ZM210 711H292L385 567H339L251 669L163 567H117L210 711Z"  />
<glyph unicode="&#xE3;" horiz-adv-x="500" d="M366 257H348Q307 257 266 255Q223 251 188 238Q153 226 132 201Q109 176 109 134Q109 85 141 64Q171 42 215 42Q270 42 302 64Q333 85 347 114Q362 145 364 175Q366 206 366 226V257ZM372 82H370Q348 37 303 13Q258 -11 208 -12Q155 -11 122 5Q88 20 70 43Q38 93 40 132Q40 196 71 233Q101 270 148 286Q195 303 250 308Q304 311 354 311H366V337Q369 468 250 468Q171 469 100 426V487Q171 520 250 522Q431 524 429 332V107Q428 49 434 0H372V82ZM112 590Q120 625 139 652Q159 679 193 680Q224 679 254 668Q284 656 298 655Q315 655 329 664Q342 673 347 689H384Q375 636 349 618Q322 600 301 601Q266 602 239 614Q212 625 192 626Q173 626 165 617Q155 608 148 590H112Z"  />
<glyph unicode="&#xE4;" horiz-adv-x="500" d="M366 257H348Q307 257 266 255Q223 251 188 238Q153 226 132 201Q109 176 109 134Q109 85 141 64Q171 42 215 42Q270 42 302 64Q333 85 347 114Q362 145 364 175Q366 206 366 226V257ZM372 82H370Q348 37 303 13Q258 -11 208 -12Q155 -11 122 5Q88 20 70 43Q38 93 40 132Q40 196 71 233Q101 270 148 286Q195 303 250 308Q304 311 354 311H366V337Q369 468 250 468Q171 469 100 426V487Q171 520 250 522Q431 524 429 332V107Q428 49 434 0H372V82ZM128 725H203V641H128V725ZM299 725H374V641H299V725Z"  />
<glyph unicode="&#xE5;" horiz-adv-x="500" d="M366 257H348Q307 257 266 255Q223 251 188 238Q153 226 132 201Q109 176 109 134Q109 85 141 64Q171 42 215 42Q270 42 302 64Q333 85 347 114Q362 145 364 175Q366 206 366 226V257ZM372 82H370Q348 37 303 13Q258 -11 208 -12Q155 -11 122 5Q88 20 70 43Q38 93 40 132Q40 196 71 233Q101 270 148 286Q195 303 250 308Q304 311 354 311H366V337Q369 468 250 468Q171 469 100 426V487Q171 520 250 522Q431 524 429 332V107Q428 49 434 0H372V82ZM191 648Q191 622 209 607Q226 589 251 589Q277 589 294 607Q311 622 311 648Q311 674 294 691Q277 707 251 707Q226 707 209 691Q191 674 191 648ZM155 648Q155 690 183 716Q210 742 251 743Q292 742 320 716Q346 690 347 648Q346 607 320 581Q292 553 251 553Q210 553 183 581Q155 607 155 648Z"  />
<glyph unicode="&#xE6;" horiz-adv-x="833" d="M718 291Q718 361 689 413Q658 466 588 468Q521 466 482 413Q441 360 441 291H718ZM749 16Q677 -11 601 -12Q444 -8 407 91Q364 31 314 9Q264 -12 214 -12Q138 -12 93 23Q46 56 46 124Q46 185 77 219Q105 253 150 269Q195 285 242 289Q290 291 328 291H372V318Q373 384 350 426Q338 446 316 457Q293 468 257 468Q176 469 106 426V487Q177 520 256 522Q313 522 354 503Q395 483 419 430Q447 473 491 497Q534 522 584 522Q691 520 740 447Q787 375 787 269V237H441V214Q440 140 480 92Q518 43 606 42Q643 42 684 55Q725 66 749 80V16ZM372 237H350Q321 237 281 236Q241 233 203 223Q166 213 141 190Q115 167 115 124Q116 84 150 63Q182 42 221 42Q304 43 339 92Q373 139 372 210V237Z"  />
<glyph unicode="&#xE7;" horiz-adv-x="444" d="M411 442Q357 467 302 468Q210 467 161 409Q110 350 110 255Q110 166 160 106Q209 43 295 42Q354 42 410 65L416 6Q354 -13 285 -12H283L268 -54Q283 -51 301 -51Q332 -51 353 -67Q373 -84 374 -116Q372 -158 337 -172Q301 -185 264 -185Q231 -184 201 -174Q171 -165 163 -163L170 -126Q181 -133 206 -143Q231 -154 259 -155Q309 -155 311 -118Q310 -81 273 -81Q252 -81 231 -85L257 -10Q148 3 95 78Q41 153 41 255Q42 376 111 448Q179 521 293 522Q340 522 371 515Q387 512 399 509Q410 505 416 502L411 442Z"  />
<glyph unicode="&#xE8;" horiz-adv-x="500" d="M390 291Q390 361 361 413Q330 466 260 468Q191 466 151 412Q110 358 110 291H390ZM421 16Q349 -11 273 -12Q148 -10 94 65Q40 138 41 255Q42 374 101 448Q158 521 256 522Q363 520 412 447Q459 375 459 269V237H110Q110 154 153 100Q195 43 278 42Q315 42 356 55Q397 66 421 80V16ZM308 567H262L136 711H215L308 567Z"  />
<glyph unicode="&#xE9;" horiz-adv-x="500" d="M390 291Q390 361 361 413Q330 466 260 468Q191 466 151 412Q110 358 110 291H390ZM421 16Q349 -11 273 -12Q148 -10 94 65Q40 138 41 255Q42 374 101 448Q158 521 256 522Q363 520 412 447Q459 375 459 269V237H110Q110 154 153 100Q195 43 278 42Q315 42 356 55Q397 66 421 80V16ZM288 711H367L241 567H195L288 711Z"  />
<glyph unicode="&#xEA;" horiz-adv-x="500" d="M390 291Q390 361 361 413Q330 466 260 468Q191 466 151 412Q110 358 110 291H390ZM421 16Q349 -11 273 -12Q148 -10 94 65Q40 138 41 255Q42 374 101 448Q158 521 256 522Q363 520 412 447Q459 375 459 269V237H110Q110 154 153 100Q195 43 278 42Q315 42 356 55Q397 66 421 80V16ZM211 711H293L386 567H340L252 669L164 567H118L211 711Z"  />
<glyph unicode="&#xEB;" horiz-adv-x="500" d="M390 291Q390 361 361 413Q330 466 260 468Q191 466 151 412Q110 358 110 291H390ZM421 16Q349 -11 273 -12Q148 -10 94 65Q40 138 41 255Q42 374 101 448Q158 521 256 522Q363 520 412 447Q459 375 459 269V237H110Q110 154 153 100Q195 43 278 42Q315 42 356 55Q397 66 421 80V16ZM129 725H204V641H129V725ZM300 725H375V641H300V725Z"  />
<glyph unicode="&#xEC;" horiz-adv-x="222" d="M168 567H122L-4 711H75L168 567ZM79 510H142V0H79V510Z"  />
<glyph unicode="&#xED;" horiz-adv-x="222" d="M146 711H225L99 567H53L146 711ZM79 510H142V0H79V510Z"  />
<glyph unicode="&#xEE;" horiz-adv-x="222" d="M70 711H152L245 567H199L111 669L23 567H-23L70 711ZM79 510H142V0H79V510Z"  />
<glyph unicode="&#xEF;" horiz-adv-x="222" d="M79 510H142V0H79V510ZM-12 725H63V641H-12V725ZM159 725H234V641H159V725Z"  />
<glyph unicode="&#xF0;" horiz-adv-x="556" d="M182 606L273 663Q212 699 138 714L150 762Q259 746 332 699L439 765L469 723L376 666Q518 532 516 296Q517 -9 278 -12Q156 -10 98 70Q40 148 40 255Q40 364 98 441Q156 520 278 522Q374 521 435 443H437Q408 561 320 631L212 564L182 606ZM109 255Q109 164 153 105Q195 43 278 42Q361 43 405 105Q447 164 447 255Q447 346 405 407Q361 467 278 468Q195 467 153 407Q109 346 109 255Z"  />
<glyph unicode="&#xF1;" horiz-adv-x="556" d="M79 390Q79 449 75 510H136V419H138Q147 437 159 455Q171 473 189 488Q208 504 236 513Q264 522 303 522Q397 521 438 466Q477 412 477 326V0H414V310Q414 383 387 426Q358 467 293 468Q209 466 175 408Q157 381 150 349Q142 316 142 282V0H79V390ZM142 590Q150 625 169 652Q189 679 223 680Q254 679 284 668Q314 656 328 655Q345 655 359 664Q372 673 377 689H414Q405 636 379 618Q352 600 331 601Q296 602 269 614Q242 625 222 626Q203 626 195 617Q185 608 178 590H142Z"  />
<glyph unicode="&#xF2;" horiz-adv-x="556" d="M109 255Q109 164 153 105Q195 43 278 42Q361 43 405 105Q447 164 447 255Q447 346 405 407Q361 467 278 468Q195 467 153 407Q109 346 109 255ZM40 255Q40 364 98 441Q156 520 278 522Q402 520 460 441Q516 364 516 255Q516 148 460 70Q402 -10 278 -12Q156 -10 98 70Q40 148 40 255ZM339 567H293L167 711H246L339 567Z"  />
<glyph unicode="&#xF3;" horiz-adv-x="556" d="M109 255Q109 164 153 105Q195 43 278 42Q361 43 405 105Q447 164 447 255Q447 346 405 407Q361 467 278 468Q195 467 153 407Q109 346 109 255ZM40 255Q40 364 98 441Q156 520 278 522Q402 520 460 441Q516 364 516 255Q516 148 460 70Q402 -10 278 -12Q156 -10 98 70Q40 148 40 255ZM319 711H398L272 567H226L319 711Z"  />
<glyph unicode="&#xF4;" horiz-adv-x="556" d="M109 255Q109 164 153 105Q195 43 278 42Q361 43 405 105Q447 164 447 255Q447 346 405 407Q361 467 278 468Q195 467 153 407Q109 346 109 255ZM40 255Q40 364 98 441Q156 520 278 522Q402 520 460 441Q516 364 516 255Q516 148 460 70Q402 -10 278 -12Q156 -10 98 70Q40 148 40 255ZM240 711H322L415 567H369L281 669L193 567H147L240 711Z"  />
<glyph unicode="&#xF5;" horiz-adv-x="556" d="M109 255Q109 164 153 105Q195 43 278 42Q361 43 405 105Q447 164 447 255Q447 346 405 407Q361 467 278 468Q195 467 153 407Q109 346 109 255ZM40 255Q40 364 98 441Q156 520 278 522Q402 520 460 441Q516 364 516 255Q516 148 460 70Q402 -10 278 -12Q156 -10 98 70Q40 148 40 255ZM143 590Q151 625 170 652Q190 679 224 680Q255 679 285 668Q315 656 329 655Q346 655 360 664Q373 673 378 689H415Q406 636 380 618Q353 600 332 601Q297 602 270 614Q243 625 223 626Q204 626 196 617Q186 608 179 590H143Z"  />
<glyph unicode="&#xF6;" horiz-adv-x="556" d="M109 255Q109 164 153 105Q195 43 278 42Q361 43 405 105Q447 164 447 255Q447 346 405 407Q361 467 278 468Q195 467 153 407Q109 346 109 255ZM40 255Q40 364 98 441Q156 520 278 522Q402 520 460 441Q516 364 516 255Q516 148 460 70Q402 -10 278 -12Q156 -10 98 70Q40 148 40 255ZM159 725H234V641H159V725ZM330 725H405V641H330V725Z"  />
<glyph unicode="&#xF7;" horiz-adv-x="600" d="M236 57Q236 85 256 103Q274 120 300 121Q326 121 345 102Q364 83 364 57Q364 32 345 13Q326 -6 300 -7Q274 -6 256 13Q236 31 236 57ZM236 450Q236 478 256 496Q274 513 300 514Q326 514 345 495Q364 476 364 450Q364 425 345 406Q326 386 300 386Q274 386 256 406Q236 424 236 450ZM46 288H553V219H46V288Z"  />
<glyph unicode="&#xF8;" horiz-adv-x="556" d="M537 516L464 432Q516 358 516 255Q516 148 460 70Q402 -10 278 -12Q181 -11 124 41L54 -40L19 -11L94 75Q39 152 40 255Q40 364 98 441Q156 520 278 522Q380 521 434 466L502 545L537 516ZM166 89Q209 42 278 42Q361 43 405 105Q447 164 447 255Q447 327 419 380L166 89ZM393 419Q349 467 278 468Q195 467 153 407Q109 346 109 255Q109 182 139 127L393 419Z"  />
<glyph unicode="&#xF9;" horiz-adv-x="556" d="M477 120Q476 62 481 0H420V91H418Q411 74 399 57Q387 39 368 23Q349 8 321 -1Q293 -12 253 -12Q160 -11 119 44Q78 98 79 184V510H142V200Q142 127 171 86Q199 42 263 42Q306 42 336 60Q366 77 382 104Q400 132 407 164Q414 196 414 228V510H477V120ZM336 567H290L164 711H243L336 567Z"  />
<glyph unicode="&#xFA;" horiz-adv-x="556" d="M477 120Q476 62 481 0H420V91H418Q411 74 399 57Q387 39 368 23Q349 8 321 -1Q293 -12 253 -12Q160 -11 119 44Q78 98 79 184V510H142V200Q142 127 171 86Q199 42 263 42Q306 42 336 60Q366 77 382 104Q400 132 407 164Q414 196 414 228V510H477V120ZM316 711H395L269 567H223L316 711Z"  />
<glyph unicode="&#xFB;" horiz-adv-x="556" d="M477 120Q476 62 481 0H420V91H418Q411 74 399 57Q387 39 368 23Q349 8 321 -1Q293 -12 253 -12Q160 -11 119 44Q78 98 79 184V510H142V200Q142 127 171 86Q199 42 263 42Q306 42 336 60Q366 77 382 104Q400 132 407 164Q414 196 414 228V510H477V120ZM238 711H320L413 567H367L279 669L191 567H145L238 711Z"  />
<glyph unicode="&#xFC;" horiz-adv-x="556" d="M477 120Q476 62 481 0H420V91H418Q411 74 399 57Q387 39 368 23Q349 8 321 -1Q293 -12 253 -12Q160 -11 119 44Q78 98 79 184V510H142V200Q142 127 171 86Q199 42 263 42Q306 42 336 60Q366 77 382 104Q400 132 407 164Q414 196 414 228V510H477V120ZM157 725H232V641H157V725ZM328 725H403V641H328V725Z"  />
<glyph unicode="&#xFD;" horiz-adv-x="444" d="M221 85H222L369 510H435L231 -76Q214 -131 184 -172Q169 -192 148 -203Q127 -215 100 -216Q65 -216 32 -208L38 -154Q47 -157 58 -159Q69 -162 85 -162Q124 -161 144 -130Q164 -101 177 -51L190 -6L9 510H78L221 85ZM261 711H340L214 567H168L261 711Z"  />
<glyph unicode="&#xFE;" horiz-adv-x="556" d="M438 255Q438 293 433 331Q426 369 408 399Q392 431 362 449Q332 468 287 468Q245 468 217 449Q188 429 170 397Q152 365 145 329Q136 291 136 255Q135 182 170 114Q188 82 217 63Q245 42 287 42Q332 42 362 63Q392 82 408 112Q426 144 433 182Q438 219 438 255ZM73 750H136V417H138Q142 428 154 447Q164 464 182 481Q201 498 229 511Q257 522 297 522Q409 521 459 447Q507 374 507 255Q507 140 455 65Q402 -10 297 -12Q181 -12 138 93H136V-210H73V750Z"  />
<glyph unicode="&#xFF;" horiz-adv-x="444" d="M221 85H222L369 510H435L231 -76Q214 -131 184 -172Q169 -192 148 -203Q127 -215 100 -216Q65 -216 32 -208L38 -154Q47 -157 58 -159Q69 -162 85 -162Q124 -161 144 -130Q164 -101 177 -51L190 -6L9 510H78L221 85ZM101 725H176V641H101V725ZM272 725H347V641H272V725Z"  />
<glyph unicode="&#x100;" horiz-adv-x="667" d="M181 247H484L333 632L181 247ZM299 698H377L654 0H582L507 187H155L80 0H13L299 698ZM217 822H461V768H217V822Z"  />
<glyph unicode="&#x101;" horiz-adv-x="500" d="M366 257H348Q307 257 266 255Q223 251 188 238Q153 226 132 201Q109 176 109 134Q109 85 141 64Q171 42 215 42Q270 42 302 64Q333 85 347 114Q362 145 364 175Q366 206 366 226V257ZM372 82H370Q348 37 303 13Q258 -11 208 -12Q155 -11 122 5Q88 20 70 43Q38 93 40 132Q40 196 71 233Q101 270 148 286Q195 303 250 308Q304 311 354 311H366V337Q369 468 250 468Q171 469 100 426V487Q171 520 250 522Q431 524 429 332V107Q428 49 434 0H372V82ZM127 668H371V614H127V668Z"  />
<glyph unicode="&#x102;" horiz-adv-x="667" d="M181 247H484L333 632L181 247ZM299 698H377L654 0H582L507 187H155L80 0H13L299 698ZM242 871Q252 840 279 828Q304 815 335 815Q366 815 393 828Q418 840 428 871H458Q452 820 420 789Q388 755 335 755Q283 755 251 789Q220 820 212 871H242Z"  />
<glyph unicode="&#x103;" horiz-adv-x="500" d="M366 257H348Q307 257 266 255Q223 251 188 238Q153 226 132 201Q109 176 109 134Q109 85 141 64Q171 42 215 42Q270 42 302 64Q333 85 347 114Q362 145 364 175Q366 206 366 226V257ZM372 82H370Q348 37 303 13Q258 -11 208 -12Q155 -11 122 5Q88 20 70 43Q38 93 40 132Q40 196 71 233Q101 270 148 286Q195 303 250 308Q304 311 354 311H366V337Q369 468 250 468Q171 469 100 426V487Q171 520 250 522Q431 524 429 332V107Q428 49 434 0H372V82ZM154 699Q164 668 191 656Q216 643 247 643Q278 643 305 656Q330 668 340 699H370Q364 648 332 617Q300 583 247 583Q195 583 163 617Q132 648 124 699H154Z"  />
<glyph unicode="&#x104;" horiz-adv-x="667" d="M299 698H377L654 0H614Q563 -40 545 -69Q528 -99 528 -124Q530 -161 573 -164Q609 -163 638 -137L652 -145Q645 -160 623 -176Q597 -198 553 -200Q518 -201 493 -186Q467 -168 465 -137Q465 -111 480 -89Q493 -68 513 -50Q556 -15 586 0H582L507 187H155L80 0H13L299 698ZM181 247H484L333 632L181 247Z"  />
<glyph unicode="&#x105;" horiz-adv-x="500" d="M372 82H370Q348 37 303 13Q258 -11 208 -12Q155 -11 122 5Q88 20 70 43Q38 93 40 132Q40 196 71 233Q101 270 148 286Q195 303 250 308Q304 311 354 311H366V337Q369 468 250 468Q171 469 100 426V487Q171 520 250 522Q431 524 429 332V107Q428 49 434 0H403Q352 -40 334 -69Q317 -99 317 -124Q319 -161 362 -164Q398 -163 427 -137L441 -145Q434 -160 412 -176Q386 -198 342 -200Q307 -201 282 -186Q256 -168 254 -137Q254 -111 269 -89Q282 -68 302 -50Q345 -15 375 0H372V82ZM366 257H348Q307 257 266 255Q223 251 188 238Q153 226 132 201Q109 176 109 134Q109 85 141 64Q171 42 215 42Q270 42 302 64Q333 85 347 114Q362 145 364 175Q366 206 366 226V257Z"  />
<glyph unicode="&#x106;" horiz-adv-x="667" d="M565 620Q531 638 490 645Q447 650 409 650Q273 648 200 565Q126 482 126 349Q126 215 199 133Q271 49 409 48Q445 48 490 55Q534 61 565 78L569 18Q538 2 492 -5Q445 -12 409 -12Q243 -10 151 88Q57 185 57 349Q58 511 152 610Q245 708 409 710Q443 710 492 705Q540 699 569 684L565 620ZM432 882H511L385 738H339L432 882Z"  />
<glyph unicode="&#x107;" horiz-adv-x="444" d="M411 442Q357 467 302 468Q210 467 161 409Q110 350 110 255Q110 166 160 106Q209 43 295 42Q354 42 410 65L416 6Q354 -13 285 -12Q162 -10 102 69Q41 146 41 255Q42 376 111 448Q179 521 293 522Q340 522 371 515Q387 512 399 509Q410 505 416 502L411 442ZM317 716H396L270 572H224L317 716Z"  />
<glyph unicode="&#x108;" horiz-adv-x="667" d="M565 620Q531 638 490 645Q447 650 409 650Q273 648 200 565Q126 482 126 349Q126 215 199 133Q271 49 409 48Q445 48 490 55Q534 61 565 78L569 18Q538 2 492 -5Q445 -12 409 -12Q243 -10 151 88Q57 185 57 349Q58 511 152 610Q245 708 409 710Q443 710 492 705Q540 699 569 684L565 620ZM350 882H432L525 738H479L391 840L303 738H257L350 882Z"  />
<glyph unicode="&#x109;" horiz-adv-x="444" d="M411 442Q357 467 302 468Q210 467 161 409Q110 350 110 255Q110 166 160 106Q209 43 295 42Q354 42 410 65L416 6Q354 -13 285 -12Q162 -10 102 69Q41 146 41 255Q42 376 111 448Q179 521 293 522Q340 522 371 515Q387 512 399 509Q410 505 416 502L411 442ZM232 716H314L407 572H361L273 674L185 572H139L232 716Z"  />
<glyph unicode="&#x10A;" horiz-adv-x="667" d="M565 620Q531 638 490 645Q447 650 409 650Q273 648 200 565Q126 482 126 349Q126 215 199 133Q271 49 409 48Q445 48 490 55Q534 61 565 78L569 18Q538 2 492 -5Q445 -12 409 -12Q243 -10 151 88Q57 185 57 349Q58 511 152 610Q245 708 409 710Q443 710 492 705Q540 699 569 684L565 620ZM350 842H425V758H350V842Z"  />
<glyph unicode="&#x10B;" horiz-adv-x="444" d="M411 442Q357 467 302 468Q210 467 161 409Q110 350 110 255Q110 166 160 106Q209 43 295 42Q354 42 410 65L416 6Q354 -13 285 -12Q162 -10 102 69Q41 146 41 255Q42 376 111 448Q179 521 293 522Q340 522 371 515Q387 512 399 509Q410 505 416 502L411 442ZM239 730H314V646H239V730Z"  />
<glyph unicode="&#x10C;" horiz-adv-x="667" d="M565 620Q531 638 490 645Q447 650 409 650Q273 648 200 565Q126 482 126 349Q126 215 199 133Q271 49 409 48Q445 48 490 55Q534 61 565 78L569 18Q538 2 492 -5Q445 -12 409 -12Q243 -10 151 88Q57 185 57 349Q58 511 152 610Q245 708 409 710Q443 710 492 705Q540 699 569 684L565 620ZM430 738H348L255 882H301L389 780L477 882H523L430 738Z"  />
<glyph unicode="&#x10D;" horiz-adv-x="444" d="M411 442Q357 467 302 468Q210 467 161 409Q110 350 110 255Q110 166 160 106Q209 43 295 42Q354 42 410 65L416 6Q354 -13 285 -12Q162 -10 102 69Q41 146 41 255Q42 376 111 448Q179 521 293 522Q340 522 371 515Q387 512 399 509Q410 505 416 502L411 442ZM315 572H233L140 716H186L274 614L362 716H408L315 572Z"  />
<glyph unicode="&#x10E;" horiz-adv-x="667" d="M80 698H253Q439 696 522 601Q603 506 602 350Q600 163 489 81Q379 0 202 0H80V698ZM149 60H206Q525 53 533 354Q531 512 451 577Q370 639 250 638H149V60ZM321 738H239L146 882H192L280 780L368 882H414L321 738Z"  />
<glyph unicode="&#x10F;" horiz-adv-x="604" d="M118 255Q118 219 125 182Q133 144 149 112Q167 82 196 63Q224 42 269 42Q311 42 341 63Q369 82 387 114Q421 182 420 255Q420 291 413 329Q405 365 387 397Q369 429 341 449Q311 468 269 468Q224 468 196 449Q167 431 149 399Q133 369 125 331Q118 293 118 255ZM483 0H420V81H418Q368 -13 259 -12Q154 -10 102 65Q49 140 49 255Q48 374 98 447Q148 521 259 522Q297 522 325 511Q354 500 373 483Q412 448 418 424H420V750H483V0ZM562 709H623L589 545H544L562 709Z"  />
<glyph unicode="&#x110;" horiz-adv-x="667" d="M149 389H362V329H149V60H206Q525 53 533 354Q532 519 441 580Q350 639 195 638H149V389ZM80 698H198Q595 704 602 350Q600 163 489 81Q379 0 202 0H80V329H11V389H80V698Z"  />
<glyph unicode="&#x111;" horiz-adv-x="564" d="M254 658H420V750H483V658H556V612H483V0H420V81H418Q368 -13 259 -12Q154 -10 102 65Q49 140 49 255Q48 374 98 447Q148 521 259 522Q297 522 325 511Q354 500 373 483Q412 448 418 424H420V612H254V658ZM118 255Q118 219 125 182Q133 144 149 112Q167 82 196 63Q224 42 269 42Q311 42 341 63Q369 82 387 114Q421 182 420 255Q420 291 413 329Q405 365 387 397Q369 429 341 449Q311 468 269 468Q224 468 196 449Q167 431 149 399Q133 369 125 331Q118 293 118 255Z"  />
<glyph unicode="&#x112;" horiz-adv-x="500" d="M86 698H428V638H155V389H414V329H155V60H440V0H86V698ZM139 822H383V768H139V822Z"  />
<glyph unicode="&#x113;" horiz-adv-x="500" d="M390 291Q390 361 361 413Q330 466 260 468Q191 466 151 412Q110 358 110 291H390ZM421 16Q349 -11 273 -12Q148 -10 94 65Q40 138 41 255Q42 374 101 448Q158 521 256 522Q363 520 412 447Q459 375 459 269V237H110Q110 154 153 100Q195 43 278 42Q315 42 356 55Q397 66 421 80V16ZM136 668H380V614H136V668Z"  />
<glyph unicode="&#x114;" horiz-adv-x="500" d="M86 698H428V638H155V389H414V329H155V60H440V0H86V698ZM166 871Q176 840 203 828Q228 815 259 815Q290 815 317 828Q342 840 352 871H382Q376 820 344 789Q312 755 259 755Q207 755 175 789Q144 820 136 871H166Z"  />
<glyph unicode="&#x115;" horiz-adv-x="500" d="M390 291Q390 361 361 413Q330 466 260 468Q191 466 151 412Q110 358 110 291H390ZM421 16Q349 -11 273 -12Q148 -10 94 65Q40 138 41 255Q42 374 101 448Q158 521 256 522Q363 520 412 447Q459 375 459 269V237H110Q110 154 153 100Q195 43 278 42Q315 42 356 55Q397 66 421 80V16ZM165 699Q175 668 202 656Q227 643 258 643Q289 643 316 656Q341 668 351 699H381Q375 648 343 617Q311 583 258 583Q206 583 174 617Q143 648 135 699H165Z"  />
<glyph unicode="&#x116;" horiz-adv-x="500" d="M86 698H428V638H155V389H414V329H155V60H440V0H86V698ZM220 842H295V758H220V842Z"  />
<glyph unicode="&#x117;" horiz-adv-x="500" d="M390 291Q390 361 361 413Q330 466 260 468Q191 466 151 412Q110 358 110 291H390ZM421 16Q349 -11 273 -12Q148 -10 94 65Q40 138 41 255Q42 374 101 448Q158 521 256 522Q363 520 412 447Q459 375 459 269V237H110Q110 154 153 100Q195 43 278 42Q315 42 356 55Q397 66 421 80V16ZM222 730H297V646H222V730Z"  />
<glyph unicode="&#x118;" horiz-adv-x="500" d="M86 698H428V638H155V389H414V329H155V60H440V0H393Q342 -40 324 -69Q307 -99 307 -124Q309 -161 352 -164Q388 -163 417 -137L431 -145Q424 -160 402 -176Q376 -198 332 -200Q297 -201 272 -186Q246 -168 244 -137Q244 -111 259 -89Q272 -68 292 -50Q335 -15 365 0H86V698Z"  />
<glyph unicode="&#x119;" horiz-adv-x="500" d="M421 16Q362 -6 301 -10Q261 -44 246 -69Q229 -99 229 -124Q231 -161 274 -164Q310 -163 339 -137L353 -145Q346 -160 324 -176Q298 -198 254 -200Q219 -201 194 -186Q168 -168 166 -137Q166 -111 181 -89Q194 -68 214 -50Q242 -26 265 -12Q146 -7 94 65Q40 138 41 255Q42 374 101 448Q158 521 256 522Q363 520 412 447Q459 375 459 269V237H110Q110 154 153 100Q195 43 278 42Q315 42 356 55Q397 66 421 80V16ZM390 291Q390 361 361 413Q330 466 260 468Q191 466 151 412Q110 358 110 291H390Z"  />
<glyph unicode="&#x11A;" horiz-adv-x="500" d="M86 698H428V638H155V389H414V329H155V60H440V0H86V698ZM301 738H219L126 882H172L260 780L348 882H394L301 738Z"  />
<glyph unicode="&#x11B;" horiz-adv-x="500" d="M390 291Q390 361 361 413Q330 466 260 468Q191 466 151 412Q110 358 110 291H390ZM421 16Q349 -11 273 -12Q148 -10 94 65Q40 138 41 255Q42 374 101 448Q158 521 256 522Q363 520 412 447Q459 375 459 269V237H110Q110 154 153 100Q195 43 278 42Q315 42 356 55Q397 66 421 80V16ZM295 572H213L120 716H166L254 614L342 716H388L295 572Z"  />
<glyph unicode="&#x11C;" horiz-adv-x="722" d="M564 318H402V378H633V31Q529 -13 416 -12Q250 -10 158 88Q64 185 64 349Q65 511 159 610Q252 708 416 710Q459 710 513 703Q566 695 603 677L595 613Q554 635 509 644Q463 650 416 650Q280 648 207 565Q133 482 133 349Q133 215 206 133Q278 49 416 48Q451 48 495 54Q538 58 564 73V318ZM359 882H441L534 738H488L400 840L312 738H266L359 882Z"  />
<glyph unicode="&#x11D;" horiz-adv-x="556" d="M483 42Q483 -67 430 -140Q375 -214 244 -216Q194 -215 152 -205Q111 -195 90 -189L95 -126Q158 -160 245 -162Q306 -161 341 -140Q377 -120 394 -84Q412 -48 417 -1Q421 46 421 100H419Q365 -2 264 0Q144 3 96 86Q71 124 61 168Q49 212 49 255Q48 374 98 447Q148 521 259 522Q309 522 347 511Q384 497 418 452H420V510H483V42ZM118 255Q117 177 152 118Q186 56 265 54Q350 56 386 120Q420 182 420 255Q420 350 388 408Q355 467 269 468Q224 468 196 449Q167 431 149 399Q133 369 125 331Q118 293 118 255ZM234 716H316L409 572H363L275 674L187 572H141L234 716Z"  />
<glyph unicode="&#x11E;" horiz-adv-x="722" d="M564 318H402V378H633V31Q529 -13 416 -12Q250 -10 158 88Q64 185 64 349Q65 511 159 610Q252 708 416 710Q459 710 513 703Q566 695 603 677L595 613Q554 635 509 644Q463 650 416 650Q280 648 207 565Q133 482 133 349Q133 215 206 133Q278 49 416 48Q451 48 495 54Q538 58 564 73V318ZM307 871Q317 840 344 828Q369 815 400 815Q431 815 458 828Q483 840 493 871H523Q517 820 485 789Q453 755 400 755Q348 755 316 789Q285 820 277 871H307Z"  />
<glyph unicode="&#x11F;" horiz-adv-x="556" d="M483 42Q483 -67 430 -140Q375 -214 244 -216Q194 -215 152 -205Q111 -195 90 -189L95 -126Q158 -160 245 -162Q306 -161 341 -140Q377 -120 394 -84Q412 -48 417 -1Q421 46 421 100H419Q365 -2 264 0Q144 3 96 86Q71 124 61 168Q49 212 49 255Q48 374 98 447Q148 521 259 522Q309 522 347 511Q384 497 418 452H420V510H483V42ZM118 255Q117 177 152 118Q186 56 265 54Q350 56 386 120Q420 182 420 255Q420 350 388 408Q355 467 269 468Q224 468 196 449Q167 431 149 399Q133 369 125 331Q118 293 118 255ZM181 699Q191 668 218 656Q243 643 274 643Q305 643 332 656Q357 668 367 699H397Q391 648 359 617Q327 583 274 583Q222 583 190 617Q159 648 151 699H181Z"  />
<glyph unicode="&#x120;" horiz-adv-x="722" d="M564 318H402V378H633V31Q529 -13 416 -12Q250 -10 158 88Q64 185 64 349Q65 511 159 610Q252 708 416 710Q459 710 513 703Q566 695 603 677L595 613Q554 635 509 644Q463 650 416 650Q280 648 207 565Q133 482 133 349Q133 215 206 133Q278 49 416 48Q451 48 495 54Q538 58 564 73V318ZM365 842H440V758H365V842Z"  />
<glyph unicode="&#x121;" horiz-adv-x="556" d="M483 42Q483 -67 430 -140Q375 -214 244 -216Q194 -215 152 -205Q111 -195 90 -189L95 -126Q158 -160 245 -162Q306 -161 341 -140Q377 -120 394 -84Q412 -48 417 -1Q421 46 421 100H419Q365 -2 264 0Q144 3 96 86Q71 124 61 168Q49 212 49 255Q48 374 98 447Q148 521 259 522Q309 522 347 511Q384 497 418 452H420V510H483V42ZM118 255Q117 177 152 118Q186 56 265 54Q350 56 386 120Q420 182 420 255Q420 350 388 408Q355 467 269 468Q224 468 196 449Q167 431 149 399Q133 369 125 331Q118 293 118 255ZM242 730H317V646H242V730Z"  />
<glyph unicode="&#x122;" horiz-adv-x="722" d="M564 318H402V378H633V31Q529 -13 416 -12Q250 -10 158 88Q64 185 64 349Q65 511 159 610Q252 708 416 710Q459 710 513 703Q566 695 603 677L595 613Q554 635 509 644Q463 650 416 650Q280 648 207 565Q133 482 133 349Q133 215 206 133Q278 49 416 48Q451 48 495 54Q538 58 564 73V318ZM372 -73H446L391 -217H334L372 -73Z"  />
<glyph unicode="&#x123;" horiz-adv-x="556" d="M483 42Q483 -67 430 -140Q375 -214 244 -216Q194 -215 152 -205Q111 -195 90 -189L95 -126Q158 -160 245 -162Q306 -161 341 -140Q377 -120 394 -84Q412 -48 417 -1Q421 46 421 100H419Q365 -2 264 0Q144 3 96 86Q71 124 61 168Q49 212 49 255Q48 374 98 447Q148 521 259 522Q309 522 347 511Q384 497 418 452H420V510H483V42ZM118 255Q117 177 152 118Q186 56 265 54Q350 56 386 120Q420 182 420 255Q420 350 388 408Q355 467 269 468Q224 468 196 449Q167 431 149 399Q133 369 125 331Q118 293 118 255ZM305 572H234L289 716H343L305 572Z"  />
<glyph unicode="&#x124;" horiz-adv-x="667" d="M88 698H157V389H510V698H579V0H510V329H157V0H88V698ZM295 882H377L470 738H424L336 840L248 738H202L295 882Z"  />
<glyph unicode="&#x125;" horiz-adv-x="556" d="M79 750H142V424H144Q165 467 206 495Q247 521 303 522Q405 521 442 462Q478 402 477 305V0H414V304Q414 338 410 368Q406 397 393 419Q369 467 293 468Q211 466 176 405Q141 344 142 273V0H79V750ZM230 927H312L405 783H359L271 885L183 783H137L230 927Z"  />
<glyph unicode="&#x126;" horiz-adv-x="667" d="M88 698H157V521H510V698H579V0H510V304H157V0H88V698ZM510 362V470H157V362H510Z"  />
<glyph unicode="&#x127;" horiz-adv-x="556" d="M142 612V424H144Q165 467 206 495Q247 521 303 522Q405 521 442 462Q478 402 477 305V0H414V304Q414 338 410 368Q406 397 393 419Q369 467 293 468Q211 466 176 405Q141 344 142 273V0H79V612H6V658H79V750H142V658H313V612H142Z"  />
<glyph unicode="&#x128;" horiz-adv-x="222" d="M77 698H146V0H77V698ZM-27 755Q-19 790 0 817Q20 844 54 845Q85 844 115 833Q145 821 159 820Q176 820 190 829Q203 838 208 854H245Q236 801 210 783Q183 765 162 766Q127 767 100 779Q73 790 53 791Q34 791 26 782Q16 773 9 755H-27Z"  />
<glyph unicode="&#x129;" horiz-adv-x="222" d="M79 510H142V0H79V510ZM-25 595Q-17 630 2 657Q22 684 56 685Q87 684 117 673Q147 661 161 660Q178 660 192 669Q205 678 210 694H247Q238 641 212 623Q185 605 164 606Q129 607 102 619Q75 630 55 631Q36 631 28 622Q18 613 11 595H-25Z"  />
<glyph unicode="&#x12A;" horiz-adv-x="222" d="M77 698H146V0H77V698ZM-10 822H234V768H-10V822Z"  />
<glyph unicode="&#x12B;" horiz-adv-x="222" d="M79 510H142V0H79V510ZM-10 668H234V614H-10V668Z"  />
<glyph unicode="&#x12E;" horiz-adv-x="222" d="M77 698H146V0Q95 -40 77 -69Q60 -99 60 -124Q62 -161 105 -164Q141 -163 170 -137L184 -145Q177 -160 155 -176Q129 -198 85 -200Q50 -201 25 -186Q-1 -168 -3 -137Q-3 -111 12 -89Q25 -68 45 -50Q88 -15 118 0H77V698Z"  />
<glyph unicode="&#x12F;" horiz-adv-x="222" d="M79 510H142V0Q91 -40 73 -69Q56 -99 56 -124Q58 -161 101 -164Q137 -163 166 -137L180 -145Q173 -160 151 -176Q125 -198 81 -200Q46 -201 21 -186Q-5 -168 -7 -137Q-7 -111 8 -89Q21 -68 41 -50Q84 -15 114 0H79V510ZM142 646H79V730H142V646Z"  />
<glyph unicode="&#x130;" horiz-adv-x="222" d="M77 698H146V0H77V698ZM72 842H147V758H72V842Z"  />
<glyph unicode="&#x131;" horiz-adv-x="222" d="M79 510H142V0H79V510Z"  />
<glyph unicode="&#x132;" horiz-adv-x="530" d="M77 698H146V0H77V698ZM447 180Q447 98 409 45Q369 -11 283 -12Q246 -12 211 0V61Q242 48 276 48Q334 49 357 88Q378 126 378 178V698H447V180Z"  />
<glyph unicode="&#x133;" horiz-adv-x="433" d="M142 646H79V730H142V646ZM79 510H142V0H79V510ZM353 646H290V730H353V646ZM183 -156Q200 -161 221 -162Q268 -161 280 -132Q291 -104 290 -64V510H353V-72Q354 -135 331 -174Q318 -193 296 -204Q272 -216 238 -216Q198 -215 183 -211V-156Z"  />
<glyph unicode="&#x134;" horiz-adv-x="333" d="M250 180Q250 98 212 45Q172 -11 86 -12Q49 -12 14 0V61Q45 48 79 48Q137 49 160 88Q181 126 181 178V698H250V180ZM168 882H250L343 738H297L209 840L121 738H75L168 882Z"  />
<glyph unicode="&#x135;" horiz-adv-x="333" d="M-28 -156Q-11 -161 10 -162Q57 -161 69 -132Q80 -104 79 -64V510H142V-72Q143 -135 120 -174Q107 -193 85 -204Q61 -216 27 -216Q-13 -215 -28 -211V-156ZM70 716H152L245 572H199L111 674L23 572H-23L70 716Z"  />
<glyph unicode="&#x136;" horiz-adv-x="611" d="M95 698H164V385L478 698H568L230 369L597 0H502L164 349V0H95V698ZM290 -73H364L309 -217H252L290 -73Z"  />
<glyph unicode="&#x137;" horiz-adv-x="500" d="M79 750H142V301L370 510H451L202 284L481 0H394L142 262V0H79V750ZM233 -73H307L252 -217H195L233 -73Z"  />
<glyph unicode="&#x139;" horiz-adv-x="444" d="M80 698H149V60H429V0H80V698ZM191 882H270L144 738H98L191 882Z"  />
<glyph unicode="&#x13A;" horiz-adv-x="222" d="M79 750H142V0H79V750ZM153 927H232L106 783H60L153 927Z"  />
<glyph unicode="&#x13B;" horiz-adv-x="444" d="M80 698H149V60H429V0H80V698ZM215 -73H289L234 -217H177L215 -73Z"  />
<glyph unicode="&#x13C;" horiz-adv-x="222" d="M79 750H142V0H79V750ZM74 -73H148L93 -217H36L74 -73Z"  />
<glyph unicode="&#x13D;" horiz-adv-x="444" d="M80 698H149V60H429V0H80V698ZM251 709H312L278 545H233L251 709Z"  />
<glyph unicode="&#x13E;" horiz-adv-x="270" d="M79 750H142V0H79V750ZM221 709H282L248 545H203L221 709Z"  />
<glyph unicode="&#x13F;" horiz-adv-x="444" d="M80 698H149V60H429V0H80V698ZM248 444H323V360H248V444Z"  />
<glyph unicode="&#x140;" horiz-adv-x="342" d="M79 750H142V0H79V750ZM230 444H305V360H230V444Z"  />
<glyph unicode="&#x141;" horiz-adv-x="444" d="M80 698H149V360L324 483V415L149 291V60H429V0H80V242L8 191V260L80 311V698Z"  />
<glyph unicode="&#x142;" horiz-adv-x="222" d="M13 289V358L79 411V750H142V461L208 514V445L142 392V0H79V342L13 289Z"  />
<glyph unicode="&#x143;" horiz-adv-x="667" d="M77 698H164L519 84H521V698H590V0H497L148 602H146V0H77V698ZM399 882H478L352 738H306L399 882Z"  />
<glyph unicode="&#x144;" horiz-adv-x="556" d="M79 390Q79 449 75 510H136V419H138Q147 437 159 455Q171 473 189 488Q208 504 236 513Q264 522 303 522Q397 521 438 466Q477 412 477 326V0H414V310Q414 383 387 426Q358 467 293 468Q209 466 175 408Q157 381 150 349Q142 316 142 282V0H79V390ZM328 716H407L281 572H235L328 716Z"  />
<glyph unicode="&#x145;" horiz-adv-x="667" d="M77 698H164L519 84H521V698H590V0H497L148 602H146V0H77V698ZM312 -73H386L331 -217H274L312 -73Z"  />
<glyph unicode="&#x146;" horiz-adv-x="556" d="M79 390Q79 449 75 510H136V419H138Q147 437 159 455Q171 473 189 488Q208 504 236 513Q264 522 303 522Q397 521 438 466Q477 412 477 326V0H414V310Q414 383 387 426Q358 467 293 468Q209 466 175 408Q157 381 150 349Q142 316 142 282V0H79V390ZM250 -73H324L269 -217H212L250 -73Z"  />
<glyph unicode="&#x147;" horiz-adv-x="667" d="M77 698H164L519 84H521V698H590V0H497L148 602H146V0H77V698ZM379 738H297L204 882H250L338 780L426 882H472L379 738Z"  />
<glyph unicode="&#x148;" horiz-adv-x="556" d="M79 390Q79 449 75 510H136V419H138Q147 437 159 455Q171 473 189 488Q208 504 236 513Q264 522 303 522Q397 521 438 466Q477 412 477 326V0H414V310Q414 383 387 426Q358 467 293 468Q209 466 175 408Q157 381 150 349Q142 316 142 282V0H79V390ZM321 572H239L146 716H192L280 614L368 716H414L321 572Z"  />
<glyph unicode="&#x149;" horiz-adv-x="616" d="M139 390Q139 449 135 510H196V419H198Q207 437 219 455Q231 473 249 488Q268 504 296 513Q324 522 363 522Q457 521 498 466Q537 412 537 326V0H474V310Q474 383 447 426Q418 467 353 468Q269 466 235 408Q217 381 210 349Q202 316 202 282V0H139V390ZM48 698H123L46 480H-11L48 698Z"  />
<glyph unicode="&#x14C;" horiz-adv-x="722" d="M361 650Q239 647 181 556Q123 465 123 349Q123 233 181 144Q239 50 361 48Q484 50 542 144Q599 233 599 349Q599 465 542 556Q484 647 361 650ZM54 349Q53 496 129 601Q204 707 361 710Q519 707 595 601Q670 496 668 349Q667 186 590 89Q512 -10 361 -12Q211 -10 134 89Q56 186 54 349ZM239 822H483V768H239V822Z"  />
<glyph unicode="&#x14D;" horiz-adv-x="556" d="M109 255Q109 164 153 105Q195 43 278 42Q361 43 405 105Q447 164 447 255Q447 346 405 407Q361 467 278 468Q195 467 153 407Q109 346 109 255ZM40 255Q40 364 98 441Q156 520 278 522Q402 520 460 441Q516 364 516 255Q516 148 460 70Q402 -10 278 -12Q156 -10 98 70Q40 148 40 255ZM157 668H401V614H157V668Z"  />
<glyph unicode="&#x14E;" horiz-adv-x="722" d="M361 650Q239 647 181 556Q123 465 123 349Q123 233 181 144Q239 50 361 48Q484 50 542 144Q599 233 599 349Q599 465 542 556Q484 647 361 650ZM54 349Q53 496 129 601Q204 707 361 710Q519 707 595 601Q670 496 668 349Q667 186 590 89Q512 -10 361 -12Q211 -10 134 89Q56 186 54 349ZM267 871Q277 840 304 828Q329 815 360 815Q391 815 418 828Q443 840 453 871H483Q477 820 445 789Q413 755 360 755Q308 755 276 789Q245 820 237 871H267Z"  />
<glyph unicode="&#x14F;" horiz-adv-x="556" d="M109 255Q109 164 153 105Q195 43 278 42Q361 43 405 105Q447 164 447 255Q447 346 405 407Q361 467 278 468Q195 467 153 407Q109 346 109 255ZM40 255Q40 364 98 441Q156 520 278 522Q402 520 460 441Q516 364 516 255Q516 148 460 70Q402 -10 278 -12Q156 -10 98 70Q40 148 40 255ZM186 699Q196 668 223 656Q248 643 279 643Q310 643 337 656Q362 668 372 699H402Q396 648 364 617Q332 583 279 583Q227 583 195 617Q164 648 156 699H186Z"  />
<glyph unicode="&#x150;" horiz-adv-x="722" d="M361 650Q239 647 181 556Q123 465 123 349Q123 233 181 144Q239 50 361 48Q484 50 542 144Q599 233 599 349Q599 465 542 556Q484 647 361 650ZM54 349Q53 496 129 601Q204 707 361 710Q519 707 595 601Q670 496 668 349Q667 186 590 89Q512 -10 361 -12Q211 -10 134 89Q56 186 54 349ZM497 882H576L450 738H404L497 882ZM327 882H406L280 738H234L327 882Z"  />
<glyph unicode="&#x151;" horiz-adv-x="556" d="M109 255Q109 164 153 105Q195 43 278 42Q361 43 405 105Q447 164 447 255Q447 346 405 407Q361 467 278 468Q195 467 153 407Q109 346 109 255ZM40 255Q40 364 98 441Q156 520 278 522Q402 520 460 441Q516 364 516 255Q516 148 460 70Q402 -10 278 -12Q156 -10 98 70Q40 148 40 255ZM412 716H491L365 572H319L412 716ZM242 716H321L195 572H149L242 716Z"  />
<glyph unicode="&#x152;" horiz-adv-x="889" d="M477 638Q425 643 350 644Q337 644 301 640Q285 637 265 630Q245 621 225 608Q185 582 155 521Q141 490 133 448Q123 405 123 349Q124 241 155 180Q170 149 188 128Q206 106 225 91Q265 65 301 59Q337 53 350 54Q425 54 477 60V638ZM817 638H546V389H803V329H546V60H829V0H499Q415 -2 331 -7Q184 -4 119 106Q53 213 54 349Q53 487 119 593Q184 702 331 705Q415 702 499 698H817V638Z"  />
<glyph unicode="&#x153;" horiz-adv-x="889" d="M105 255Q105 164 149 105Q191 43 274 42Q322 42 353 60Q384 77 402 106Q435 166 434 255Q435 340 402 403Q384 433 353 451Q322 468 274 468Q191 467 149 407Q105 346 105 255ZM503 237Q503 154 546 100Q588 43 671 42Q708 42 749 55Q790 66 814 80V16Q742 -11 666 -12Q519 -10 470 92Q416 -9 274 -12Q152 -10 94 70Q36 148 36 255Q36 364 94 441Q152 520 274 522Q408 524 466 412Q521 521 649 522Q756 520 805 446Q852 372 852 271V237H503ZM783 291Q783 361 752 413Q719 466 653 468Q581 467 543 419Q503 371 503 291H783Z"  />
<glyph unicode="&#x154;" horiz-adv-x="556" d="M88 698H268Q468 701 473 517Q472 449 428 408Q384 366 318 356V354Q358 349 376 328Q386 318 393 303Q401 288 408 270L527 0H451L350 236Q322 301 292 317Q277 326 258 328Q239 329 214 329H157V0H88V698ZM157 389H230Q295 388 348 417Q402 446 404 517Q404 560 390 585Q376 610 352 621Q328 633 296 636Q264 638 228 638H157V389ZM303 882H382L256 738H210L303 882Z"  />
<glyph unicode="&#x155;" horiz-adv-x="333" d="M79 396Q79 467 75 510H138V412H140Q158 457 191 489Q223 521 271 522Q296 521 315 516V450Q294 456 269 456Q232 455 208 438Q184 420 169 389Q155 359 149 324Q142 287 142 252V0H79V396ZM249 716H328L202 572H156L249 716Z"  />
<glyph unicode="&#x156;" horiz-adv-x="556" d="M88 698H268Q468 701 473 517Q472 449 428 408Q384 366 318 356V354Q358 349 376 328Q386 318 393 303Q401 288 408 270L527 0H451L350 236Q322 301 292 317Q277 326 258 328Q239 329 214 329H157V0H88V698ZM157 389H230Q295 388 348 417Q402 446 404 517Q404 560 390 585Q376 610 352 621Q328 633 296 636Q264 638 228 638H157V389ZM251 -73H325L270 -217H213L251 -73Z"  />
<glyph unicode="&#x157;" horiz-adv-x="333" d="M79 396Q79 467 75 510H138V412H140Q158 457 191 489Q223 521 271 522Q296 521 315 516V450Q294 456 269 456Q232 455 208 438Q184 420 169 389Q155 359 149 324Q142 287 142 252V0H79V396ZM75 -73H149L94 -217H37L75 -73Z"  />
<glyph unicode="&#x158;" horiz-adv-x="556" d="M88 698H268Q468 701 473 517Q472 449 428 408Q384 366 318 356V354Q358 349 376 328Q386 318 393 303Q401 288 408 270L527 0H451L350 236Q322 301 292 317Q277 326 258 328Q239 329 214 329H157V0H88V698ZM157 389H230Q295 388 348 417Q402 446 404 517Q404 560 390 585Q376 610 352 621Q328 633 296 636Q264 638 228 638H157V389ZM297 738H215L122 882H168L256 780L344 882H390L297 738Z"  />
<glyph unicode="&#x159;" horiz-adv-x="333" d="M79 396Q79 467 75 510H138V412H140Q158 457 191 489Q223 521 271 522Q296 521 315 516V450Q294 456 269 456Q232 455 208 438Q184 420 169 389Q155 359 149 324Q142 287 142 252V0H79V396ZM245 572H163L70 716H116L204 614L292 716H338L245 572Z"  />
<glyph unicode="&#x15A;" horiz-adv-x="500" d="M67 89Q126 48 221 48Q288 48 333 83Q377 118 378 191Q377 242 328 277Q306 295 277 311Q248 327 218 343Q188 360 160 379Q131 397 108 419Q59 462 58 528Q59 613 123 662Q185 709 279 710Q306 710 343 706Q380 700 416 687L405 624Q354 650 278 650Q251 650 225 645Q199 639 176 624Q155 611 141 588Q127 564 127 530Q127 505 141 484Q155 463 177 447Q200 430 229 415Q257 399 287 382Q350 352 397 306Q420 284 434 254Q447 224 447 185Q445 81 374 34Q304 -12 218 -12Q116 -10 60 18L67 89ZM305 882H384L258 738H212L305 882Z"  />
<glyph unicode="&#x15B;" horiz-adv-x="389" d="M40 74Q98 43 173 42Q220 42 253 67Q285 90 286 133Q285 178 249 204Q213 229 164 249Q141 260 120 272Q99 284 80 299Q63 315 52 336Q41 356 41 383Q42 459 93 491Q142 522 207 522Q229 522 264 518Q299 512 333 499L327 444Q272 467 214 468Q165 468 136 450Q121 441 113 425Q104 409 104 383Q104 367 115 353Q126 340 144 329Q162 319 185 308Q208 298 230 286Q280 265 317 230Q354 195 355 133Q355 93 339 66Q322 38 296 21Q240 -12 177 -12Q103 -12 34 12L40 74H40ZM250 716H329L203 572H157L250 716Z"  />
<glyph unicode="&#x15C;" horiz-adv-x="500" d="M67 89Q126 48 221 48Q288 48 333 83Q377 118 378 191Q377 242 328 277Q306 295 277 311Q248 327 218 343Q188 360 160 379Q131 397 108 419Q59 462 58 528Q59 613 123 662Q185 709 279 710Q306 710 343 706Q380 700 416 687L405 624Q354 650 278 650Q251 650 225 645Q199 639 176 624Q155 611 141 588Q127 564 127 530Q127 505 141 484Q155 463 177 447Q200 430 229 415Q257 399 287 382Q350 352 397 306Q420 284 434 254Q447 224 447 185Q445 81 374 34Q304 -12 218 -12Q116 -10 60 18L67 89ZM218 882H300L393 738H347L259 840L171 738H125L218 882Z"  />
<glyph unicode="&#x15D;" horiz-adv-x="389" d="M40 74Q98 43 173 42Q220 42 253 67Q285 90 286 133Q285 178 249 204Q213 229 164 249Q141 260 120 272Q99 284 80 299Q63 315 52 336Q41 356 41 383Q42 459 93 491Q142 522 207 522Q229 522 264 518Q299 512 333 499L327 444Q272 467 214 468Q165 468 136 450Q121 441 113 425Q104 409 104 383Q104 367 115 353Q126 340 144 329Q162 319 185 308Q208 298 230 286Q280 265 317 230Q354 195 355 133Q355 93 339 66Q322 38 296 21Q240 -12 177 -12Q103 -12 34 12L40 74H40ZM159 716H241L334 572H288L200 674L112 572H66L159 716Z"  />
<glyph unicode="&#x15E;" horiz-adv-x="500" d="M67 89Q126 48 221 48Q288 48 333 83Q377 118 378 191Q377 242 328 277Q306 295 277 311Q248 327 218 343Q188 360 160 379Q131 397 108 419Q59 462 58 528Q59 613 123 662Q185 709 279 710Q306 710 343 706Q380 700 416 687L405 624Q354 650 278 650Q251 650 225 645Q199 639 176 624Q155 611 141 588Q127 564 127 530Q127 505 141 484Q155 463 177 447Q200 430 229 415Q257 399 287 382Q350 352 397 306Q420 284 434 254Q447 224 447 185Q445 81 374 34Q316 -3 248 -10L209 -58L211 -60Q226 -55 236 -54T257 -52Q292 -52 315 -68T338 -119Q338 -141 328 -156T300 -181T262 -195T220 -200Q199 -200 173 -196T126 -184L137 -156Q159 -163 175 -166T209 -170Q223 -170 235 -168T256 -161T269 -147T274 -124Q274 -103 260 -93T225 -82Q212 -82 199 -86T174 -95L163 -83L217 -12Q115 -10 60 18L67 89Z"  />
<glyph unicode="&#x15F;" horiz-adv-x="389" d="M40 74Q98 43 173 42Q220 42 253 67Q285 90 286 133Q285 178 249 204Q213 229 164 249Q141 260 120 272Q99 284 80 299Q63 315 52 336Q41 356 41 383Q42 459 93 491Q142 522 207 522Q229 522 264 518Q299 512 333 499L327 444Q272 467 214 468Q165 468 136 450Q121 441 113 425Q104 409 104 383Q104 367 115 353Q126 340 144 329Q162 319 185 308Q208 298 230 286Q280 265 317 230Q354 195 355 133Q355 93 339 66Q322 38 296 21Q247 -7 193 -11L155 -58L157 -60Q172 -55 182 -54T203 -52Q238 -52 261 -68T284 -119Q284 -141 274 -156T246 -181T208 -195T166 -200Q145 -200 119 -196T72 -184L83 -156Q105 -163 121 -166T155 -170Q169 -170 181 -168T202 -161T215 -147T220 -124Q220 -103 206 -93T171 -82Q158 -82 145 -86T120 -95L109 -83L163 -12Q96 -10 34 12L40 74H40Z"  />
<glyph unicode="&#x160;" horiz-adv-x="500" d="M67 89Q126 48 221 48Q288 48 333 83Q377 118 378 191Q377 242 328 277Q306 295 277 311Q248 327 218 343Q188 360 160 379Q131 397 108 419Q59 462 58 528Q59 613 123 662Q185 709 279 710Q306 710 343 706Q380 700 416 687L405 624Q354 650 278 650Q251 650 225 645Q199 639 176 624Q155 611 141 588Q127 564 127 530Q127 505 141 484Q155 463 177 447Q200 430 229 415Q257 399 287 382Q350 352 397 306Q420 284 434 254Q447 224 447 185Q445 81 374 34Q304 -12 218 -12Q116 -10 60 18L67 89ZM293 738H211L118 882H164L252 780L340 882H386L293 738Z"  />
<glyph unicode="&#x161;" horiz-adv-x="389" d="M40 74Q98 43 173 42Q220 42 253 67Q285 90 286 133Q285 178 249 204Q213 229 164 249Q141 260 120 272Q99 284 80 299Q63 315 52 336Q41 356 41 383Q42 459 93 491Q142 522 207 522Q229 522 264 518Q299 512 333 499L327 444Q272 467 214 468Q165 468 136 450Q121 441 113 425Q104 409 104 383Q104 367 115 353Q126 340 144 329Q162 319 185 308Q208 298 230 286Q280 265 317 230Q354 195 355 133Q355 93 339 66Q322 38 296 21Q240 -12 177 -12Q103 -12 34 12L40 74H40ZM236 567H154L61 711H107L195 609L283 711H329L236 567Z"  />
<glyph unicode="&#x162;" horiz-adv-x="500" d="M216 638H10V698H491V638H285V0H216V638ZM212 -73H286L231 -217H174L212 -73Z"  />
<glyph unicode="&#x163;" horiz-adv-x="333" d="M299 456H183V126Q183 91 199 67Q214 42 251 42Q285 42 309 54L313 2Q302 -2 282 -7Q261 -12 236 -12Q195 -12 171 2Q148 16 136 39Q126 63 123 93Q120 123 120 158V456H20V510H120V633L183 655V510H299V456ZM155 -73H229L174 -217H117L155 -73Z"  />
<glyph unicode="&#x164;" horiz-adv-x="500" d="M216 638H10V698H491V638H285V0H216V638ZM291 738H209L116 882H162L250 780L338 882H384L291 738Z"  />
<glyph unicode="&#x165;" horiz-adv-x="339" d="M299 456H183V126Q183 91 199 67Q214 42 251 42Q285 42 309 54L313 2Q302 -2 282 -7Q261 -12 236 -12Q195 -12 171 2Q148 16 136 39Q126 63 123 93Q120 123 120 158V456H20V510H120V633L183 655V510H299V456ZM265 709H326L292 545H247L265 709Z"  />
<glyph unicode="&#x166;" horiz-adv-x="500" d="M50 489H216V638H10V698H491V638H285V489H450V436H285V0H216V436H50V489Z"  />
<glyph unicode="&#x167;" horiz-adv-x="333" d="M183 307V126Q183 91 199 67Q214 42 251 42Q285 42 309 54L313 2Q302 -2 282 -7Q261 -12 236 -12Q195 -12 171 2Q148 16 136 39Q126 63 123 93Q120 123 120 158V307H30V355H120V456H20V510H120V633L183 655V510H299V456H183V355H283V307H183Z"  />
<glyph unicode="&#x168;" horiz-adv-x="667" d="M587 244Q586 168 563 118Q538 67 500 39Q461 11 418 0Q374 -12 334 -12Q296 -12 253 0Q209 11 170 39Q132 67 107 118Q81 168 81 244V698H150V244Q150 157 197 104Q244 49 334 48Q426 49 472 104Q518 157 518 244V698H587V244ZM210 755Q218 790 237 817Q257 844 291 845Q322 844 352 833Q382 821 396 820Q413 820 427 829Q440 838 445 854H482Q473 801 447 783Q420 765 399 766Q364 767 337 779Q310 790 290 791Q271 791 263 782Q253 773 246 755H210Z"  />
<glyph unicode="&#x169;" horiz-adv-x="556" d="M477 120Q476 62 481 0H420V91H418Q411 74 399 57Q387 39 368 23Q349 8 321 -1Q293 -12 253 -12Q160 -11 119 44Q78 98 79 184V510H142V200Q142 127 171 86Q199 42 263 42Q306 42 336 60Q366 77 382 104Q400 132 407 164Q414 196 414 228V510H477V120ZM147 595Q155 630 174 657Q194 684 228 685Q259 684 289 673Q319 661 333 660Q350 660 364 669Q377 678 382 694H419Q410 641 384 623Q357 605 336 606Q301 607 274 619Q247 630 227 631Q208 631 200 622Q190 613 183 595H147Z"  />
<glyph unicode="&#x16A;" horiz-adv-x="667" d="M587 244Q586 168 563 118Q538 67 500 39Q461 11 418 0Q374 -12 334 -12Q296 -12 253 0Q209 11 170 39Q132 67 107 118Q81 168 81 244V698H150V244Q150 157 197 104Q244 49 334 48Q426 49 472 104Q518 157 518 244V698H587V244ZM218 822H462V768H218V822Z"  />
<glyph unicode="&#x16B;" horiz-adv-x="556" d="M477 120Q476 62 481 0H420V91H418Q411 74 399 57Q387 39 368 23Q349 8 321 -1Q293 -12 253 -12Q160 -11 119 44Q78 98 79 184V510H142V200Q142 127 171 86Q199 42 263 42Q306 42 336 60Q366 77 382 104Q400 132 407 164Q414 196 414 228V510H477V120ZM157 668H401V614H157V668Z"  />
<glyph unicode="&#x16C;" horiz-adv-x="667" d="M587 244Q586 168 563 118Q538 67 500 39Q461 11 418 0Q374 -12 334 -12Q296 -12 253 0Q209 11 170 39Q132 67 107 118Q81 168 81 244V698H150V244Q150 157 197 104Q244 49 334 48Q426 49 472 104Q518 157 518 244V698H587V244ZM251 871Q261 840 288 828Q313 815 344 815Q375 815 402 828Q427 840 437 871H467Q461 820 429 789Q397 755 344 755Q292 755 260 789Q229 820 221 871H251Z"  />
<glyph unicode="&#x16D;" horiz-adv-x="556" d="M477 120Q476 62 481 0H420V91H418Q411 74 399 57Q387 39 368 23Q349 8 321 -1Q293 -12 253 -12Q160 -11 119 44Q78 98 79 184V510H142V200Q142 127 171 86Q199 42 263 42Q306 42 336 60Q366 77 382 104Q400 132 407 164Q414 196 414 228V510H477V120ZM187 699Q197 668 224 656Q249 643 280 643Q311 643 338 656Q363 668 373 699H403Q397 648 365 617Q333 583 280 583Q228 583 196 617Q165 648 157 699H187Z"  />
<glyph unicode="&#x16E;" horiz-adv-x="667" d="M587 244Q586 168 563 118Q538 67 500 39Q461 11 418 0Q374 -12 334 -12Q296 -12 253 0Q209 11 170 39Q132 67 107 118Q81 168 81 244V698H150V244Q150 157 197 104Q244 49 334 48Q426 49 472 104Q518 157 518 244V698H587V244ZM284 816Q284 790 302 775Q319 757 344 757Q370 757 387 775Q404 790 404 816Q404 842 387 859Q370 875 344 875Q319 875 302 859Q284 842 284 816ZM248 816Q248 858 276 884Q303 910 344 911Q385 910 413 884Q439 858 440 816Q439 775 413 749Q385 721 344 721Q303 721 276 749Q248 775 248 816Z"  />
<glyph unicode="&#x16F;" horiz-adv-x="556" d="M477 120Q476 62 481 0H420V91H418Q411 74 399 57Q387 39 368 23Q349 8 321 -1Q293 -12 253 -12Q160 -11 119 44Q78 98 79 184V510H142V200Q142 127 171 86Q199 42 263 42Q306 42 336 60Q366 77 382 104Q400 132 407 164Q414 196 414 228V510H477V120ZM219 648Q219 622 237 607Q254 589 279 589Q305 589 322 607Q339 622 339 648Q339 674 322 691Q305 707 279 707Q254 707 237 691Q219 674 219 648ZM183 648Q183 690 211 716Q238 742 279 743Q320 742 348 716Q374 690 375 648Q374 607 348 581Q320 553 279 553Q238 553 211 581Q183 607 183 648Z"  />
<glyph unicode="&#x170;" horiz-adv-x="667" d="M587 244Q586 168 563 118Q538 67 500 39Q461 11 418 0Q374 -12 334 -12Q296 -12 253 0Q209 11 170 39Q132 67 107 118Q81 168 81 244V698H150V244Q150 157 197 104Q244 49 334 48Q426 49 472 104Q518 157 518 244V698H587V244ZM470 882H549L423 738H377L470 882ZM300 882H379L253 738H207L300 882Z"  />
<glyph unicode="&#x171;" horiz-adv-x="556" d="M477 120Q476 62 481 0H420V91H418Q411 74 399 57Q387 39 368 23Q349 8 321 -1Q293 -12 253 -12Q160 -11 119 44Q78 98 79 184V510H142V200Q142 127 171 86Q199 42 263 42Q306 42 336 60Q366 77 382 104Q400 132 407 164Q414 196 414 228V510H477V120ZM415 716H494L368 572H322L415 716ZM245 716H324L198 572H152L245 716Z"  />
<glyph unicode="&#x172;" horiz-adv-x="667" d="M425 -145Q418 -160 396 -176Q370 -198 326 -200Q291 -201 266 -186Q240 -168 238 -137Q238 -111 253 -89Q266 -68 286 -50Q315 -26 338 -12H334Q296 -12 253 0Q209 11 170 39Q132 67 107 118Q81 168 81 244V698H150V244Q150 157 197 104Q244 49 334 48Q426 49 472 104Q518 157 518 244V698H587V244Q586 168 563 118Q538 67 500 39Q461 11 418 0Q396 -6 375 -9Q334 -43 318 -69Q301 -99 301 -124Q303 -161 346 -164Q382 -163 411 -137L425 -145Z"  />
<glyph unicode="&#x173;" horiz-adv-x="556" d="M477 120Q476 62 481 0H457Q406 -40 388 -69Q371 -99 371 -124Q373 -161 416 -164Q452 -163 481 -137L495 -145Q488 -160 466 -176Q440 -198 396 -200Q361 -201 336 -186Q310 -168 308 -137Q308 -111 323 -89Q336 -68 356 -50Q399 -15 429 0H420V91H418Q411 74 399 57Q387 39 368 23Q349 8 321 -1Q293 -12 253 -12Q160 -11 119 44Q78 98 79 184V510H142V200Q142 127 171 86Q199 42 263 42Q306 42 336 60Q366 77 382 104Q400 132 407 164Q414 196 414 228V510H477V120Z"  />
<glyph unicode="&#x174;" horiz-adv-x="944" d="M733 0H651L474 620H472L292 0H209L9 698H80L252 78H254L433 698H516L692 78H694L869 698H935L733 0ZM436 882H518L611 738H565L477 840L389 738H343L436 882Z"  />
<glyph unicode="&#x175;" horiz-adv-x="778" d="M603 0H527L388 441H386L247 0H171L7 510H76L210 69H212L354 510H430L565 69H567L708 510H771L603 0ZM354 716H436L529 572H483L395 674L307 572H261L354 716Z"  />
<glyph unicode="&#x176;" horiz-adv-x="611" d="M271 296L12 698H92L305 357L524 698H599L340 296V0H271V296ZM274 882H356L449 738H403L315 840L227 738H181L274 882Z"  />
<glyph unicode="&#x177;" horiz-adv-x="444" d="M221 85H222L369 510H435L231 -76Q214 -131 184 -172Q169 -192 148 -203Q127 -215 100 -216Q65 -216 32 -208L38 -154Q47 -157 58 -159Q69 -162 85 -162Q124 -161 144 -130Q164 -101 177 -51L190 -6L9 510H78L221 85ZM186 716H268L361 572H315L227 674L139 572H93L186 716Z"  />
<glyph unicode="&#x178;" horiz-adv-x="611" d="M271 296L12 698H92L305 357L524 698H599L340 296V0H271V296ZM189 842H264V758H189V842ZM360 842H435V758H360V842Z"  />
<glyph unicode="&#x179;" horiz-adv-x="500" d="M21 60L385 638H30V698H458V638L96 60H470V0H21V60ZM306 882H385L259 738H213L306 882Z"  />
<glyph unicode="&#x17A;" horiz-adv-x="444" d="M32 53L339 456H44V510H412V456L105 54H412V0H32V53ZM282 716H361L235 572H189L282 716Z"  />
<glyph unicode="&#x17B;" horiz-adv-x="500" d="M21 60L385 638H30V698H458V638L96 60H470V0H21V60ZM217 842H292V758H217V842Z"  />
<glyph unicode="&#x17C;" horiz-adv-x="444" d="M32 53L339 456H44V510H412V456L105 54H412V0H32V53ZM198 730H273V646H198V730Z"  />
<glyph unicode="&#x17D;" horiz-adv-x="500" d="M21 60L385 638H30V698H458V638L96 60H470V0H21V60ZM292 738H210L117 882H163L251 780L339 882H385L292 738Z"  />
<glyph unicode="&#x17E;" horiz-adv-x="444" d="M32 53L339 456H44V510H412V456L105 54H412V0H32V53ZM263 572H181L88 716H134L222 614L310 716H356L263 572Z"  />
<glyph unicode="&#x192;" horiz-adv-x="556" d="M458 365H332L261 2Q241 -110 203 -163Q165 -216 83 -216Q49 -215 25 -206L41 -153Q62 -161 84 -162Q139 -161 163 -112Q187 -64 199 13L266 365H155V419H277L294 510Q301 548 313 583Q324 618 343 645Q363 672 394 689Q424 705 469 705Q503 704 533 688L520 638Q494 650 464 651Q446 651 431 646Q416 639 404 623Q379 593 361 511L343 419H458V365Z"  />
<glyph unicode="&#x218;" horiz-adv-x="500" d="M67 89Q126 48 221 48Q288 48 333 83Q377 118 378 191Q377 242 328 277Q306 295 277 311Q248 327 218 343Q188 360 160 379Q131 397 108 419Q59 462 58 528Q59 613 123 662Q185 709 279 710Q306 710 343 706Q380 700 416 687L405 624Q354 650 278 650Q251 650 225 645Q199 639 176 624Q155 611 141 588Q127 564 127 530Q127 505 141 484Q155 463 177 447Q200 430 229 415Q257 399 287 382Q350 352 397 306Q420 284 434 254Q447 224 447 185Q445 81 374 34Q304 -12 218 -12Q116 -10 60 18L67 89ZM213 -73H287L232 -217H175L213 -73Z"  />
<glyph unicode="&#x219;" horiz-adv-x="389" d="M40 74Q98 43 173 42Q220 42 253 67Q285 90 286 133Q285 178 249 204Q213 229 164 249Q141 260 120 272Q99 284 80 299Q63 315 52 336Q41 356 41 383Q42 459 93 491Q142 522 207 522Q229 522 264 518Q299 512 333 499L327 444Q272 467 214 468Q165 468 136 450Q121 441 113 425Q104 409 104 383Q104 367 115 353Q126 340 144 329Q162 319 185 308Q208 298 230 286Q280 265 317 230Q354 195 355 133Q355 93 339 66Q322 38 296 21Q240 -12 177 -12Q103 -12 34 12L40 74H40ZM162 -73H236L181 -217H124L162 -73Z"  />
<glyph unicode="&#x21A;" horiz-adv-x="500" d="M216 638H10V698H491V638H285V0H216V638ZM212 -73H286L231 -217H174L212 -73Z"  />
<glyph unicode="&#x21B;" horiz-adv-x="333" d="M299 456H183V126Q183 91 199 67Q214 42 251 42Q285 42 309 54L313 2Q302 -2 282 -7Q261 -12 236 -12Q195 -12 171 2Q148 16 136 39Q126 63 123 93Q120 123 120 158V456H20V510H120V633L183 655V510H299V456ZM155 -73H229L174 -217H117L155 -73Z"  />
<glyph unicode="&#x237;" horiz-adv-x="222" d="M-28 -156Q-11 -161 10 -162Q57 -161 69 -132Q80 -104 79 -64V510H142V-72Q143 -135 120 -174Q107 -193 85 -204Q61 -216 27 -216Q-13 -215 -28 -211V-156Z"  />
<glyph unicode="&#x2C6;" horiz-adv-x="222" d="M70 716H152L245 572H199L111 674L23 572H-23L70 716Z"  />
<glyph unicode="&#x2C7;" horiz-adv-x="222" d="M152 572H70L-23 716H23L111 614L199 716H245L152 572Z"  />
<glyph unicode="&#x2C9;" horiz-adv-x="222" d="M-11 668H233V614H-11V668Z"  />
<glyph unicode="&#x2D8;" horiz-adv-x="222" d="M18 699Q28 668 55 656Q80 643 111 643Q142 643 169 656Q194 668 204 699H234Q228 648 196 617Q164 583 111 583Q59 583 27 617Q-4 648 -12 699H18Z"  />
<glyph unicode="&#x2D9;" horiz-adv-x="222" d="M74 730H149V646H74V730Z"  />
<glyph unicode="&#x2DA;" horiz-adv-x="222" d="M51 648Q51 622 69 607Q86 589 111 589Q137 589 154 607Q171 622 171 648Q171 674 154 691Q137 707 111 707Q86 707 69 691Q51 674 51 648ZM15 648Q15 690 43 716Q70 742 111 743Q152 742 180 716Q206 690 207 648Q206 607 180 581Q152 553 111 553Q70 553 43 581Q15 607 15 648Z"  />
<glyph unicode="&#x2DB;" horiz-adv-x="222" d="M268 -145Q261 -165 237 -186Q212 -209 167 -210Q134 -210 108 -190Q80 -172 79 -137Q79 -111 94 -89Q107 -68 127 -50Q170 -15 200 0H228Q177 -40 159 -69Q141 -99 142 -124Q142 -173 194 -174Q234 -173 254 -137L268 -145Z"  />
<glyph unicode="&#x2DC;" horiz-adv-x="222" d="M-27 595Q-19 630 0 657Q20 684 54 685Q85 684 115 673Q145 661 159 660Q176 660 190 669Q203 678 208 694H245Q236 641 210 623Q183 605 162 606Q127 607 100 619Q73 630 53 631Q34 631 26 622Q16 613 9 595H-27Z"  />
<glyph unicode="&#x2DD;" horiz-adv-x="222" d="M231 716H310L184 572H138L231 716ZM61 716H140L14 572H-32L61 716Z"  />
<glyph unicode="&#x394;" horiz-adv-x="674" d="M333 628L120 72H550L333 628ZM13 0L292 712H375L662 0H13Z"  />
<glyph unicode="&#x3A9;" horiz-adv-x="744" d="M449 60Q479 83 507 115T557 186T592 270T605 367Q605 400 599 434T581 499T551 557T506 605T447 638T373 650Q312 650 267 627T193 564T149 474T135 367Q135 322 147 278T180 195T230 121T291 60L294 0H61V60H210Q182 84 156 115T110 184T78 267T66 367Q66 434 85 496T143 605T239 681T373 710Q425 710 468 697T544 660T602 605T642 536T666 459T674 378Q674 318 659 268T622 177T574 107T527 60H683V0H446L449 60Z"  />
<glyph unicode="&#x3BC;" horiz-adv-x="564" d="M481 106Q481 74 489 57T520 40Q527 40 537 42T554 47L556 -1Q545 -5 530 -8T500 -12Q479 -12 465 -5T441 15T428 48T424 91H422Q414 74 402 56T370 22T325 -2T264 -12Q248 -12 231 -9T197 1T168 18T147 44H146V-210H83V510H146V200Q146 164 152 135T173 85T211 53T267 42Q310 42 339 59T385 103T410 163T418 228V510H481V106Z"  />
<glyph unicode="&#x3C0;" horiz-adv-x="596" d="M502 -12Q472 -12 453 -3T423 21T409 57T405 98V456H175V0H112V456H23V510H557V456H468V111Q468 99 469 87T474 64T487 48T509 42Q525 42 536 45T556 54L559 0Q549 -4 534 -8T502 -12Z"  />
<glyph unicode="&#x2013;" horiz-adv-x="500" d="M0 296H500V242H0V296Z"  />
<glyph unicode="&#x2014;" horiz-adv-x="1000" d="M0 296H1000V242H0V296Z"  />
<glyph unicode="&#x2018;" horiz-adv-x="278" d="M147 480H72L149 698H206L147 480Z"  />
<glyph unicode="&#x2019;" horiz-adv-x="278" d="M131 698H206L129 480H72L131 698Z"  />
<glyph unicode="&#x201A;" horiz-adv-x="278" d="M131 84H206L129 -134H72L131 84Z"  />
<glyph unicode="&#x201C;" horiz-adv-x="556" d="M374 480H299L376 698H433L374 480ZM198 480H123L200 698H257L198 480Z"  />
<glyph unicode="&#x201D;" horiz-adv-x="556" d="M182 698H257L180 480H123L182 698ZM358 698H433L356 480H299L358 698Z"  />
<glyph unicode="&#x201E;" horiz-adv-x="556" d="M358 84H433L356 -134H299L358 84ZM182 84H257L181 -134H123L182 84Z"  />
<glyph unicode="&#x2020;" horiz-adv-x="556" d="M246 456H71V510H246V698H309V510H485V456H309V0H246V456Z"  />
<glyph unicode="&#x2021;" horiz-adv-x="556" d="M71 242H246V456H71V510H246V698H309V510H485V456H309V242H485V188H309V0H246V188H71V242Z"  />
<glyph unicode="&#x2022;" horiz-adv-x="500" d="M76 349Q77 423 128 473Q176 523 250 524Q324 523 374 473Q424 423 425 349Q424 275 374 227Q324 176 250 175Q176 176 128 227Q77 275 76 349Z"  />
<glyph unicode="&#x2026;" horiz-adv-x="1000" d="M793 84H874V0H793V84ZM460 84H541V0H460V84ZM127 84H208V0H127V84Z"  />
<glyph unicode="&#x2030;" horiz-adv-x="1000" d="M521 720H579L166 -22H108L521 720ZM757 170Q757 152 759 130Q760 107 766 87Q773 67 788 55Q801 41 826 41Q853 41 867 55Q882 67 887 87Q896 129 895 170Q895 190 894 213Q893 234 887 254Q882 274 867 287Q853 299 826 299Q801 299 788 287Q773 274 766 254Q756 211 757 170ZM694 170Q694 203 700 235Q705 265 718 291Q733 317 759 332Q784 347 826 347Q868 347 895 332Q921 317 934 291Q949 265 954 235Q958 203 958 170Q958 138 954 108Q949 76 934 50Q921 24 895 9Q868 -6 826 -7Q784 -6 759 9Q733 24 718 50Q705 76 700 108Q694 138 694 170ZM443 170Q443 152 445 130Q446 107 452 87Q459 67 474 55Q487 41 512 41Q539 41 553 55Q568 67 573 87Q582 129 581 170Q581 190 580 213Q579 234 573 254Q568 274 553 287Q539 299 512 299Q487 299 474 287Q459 274 452 254Q442 211 443 170ZM380 170Q380 203 386 235Q391 265 404 291Q419 317 445 332Q470 347 512 347Q554 347 581 332Q607 317 620 291Q635 265 640 235Q644 203 644 170Q644 138 640 108Q635 76 620 50Q607 24 581 9Q554 -6 512 -7Q470 -6 445 9Q419 24 404 50Q391 76 386 108Q380 138 380 170ZM105 528Q105 510 107 488Q108 465 114 445Q121 425 136 413Q149 399 174 399Q201 399 215 413Q230 425 235 445Q244 487 243 528Q243 548 242 571Q241 592 235 612Q230 632 215 645Q201 657 174 657Q149 657 136 645Q121 632 114 612Q104 569 105 528ZM42 528Q42 564 49 597Q55 629 69 653Q96 704 174 705Q253 704 281 653Q307 601 306 528Q307 455 281 405Q266 381 241 367Q214 351 174 351Q96 352 69 405Q55 431 49 462Q42 494 42 528Z"  />
<glyph unicode="&#x2039;" horiz-adv-x="278" d="M105 269L238 64H179L39 269L179 474H238L105 269Z"  />
<glyph unicode="&#x203A;" horiz-adv-x="278" d="M173 269L40 474H99L239 269L99 64H40L173 269Z"  />
<glyph unicode="&#x2044;" horiz-adv-x="167" d="M261 720H318L-95 -22H-152L261 720Z"  />
<glyph unicode="&#x20AC;" horiz-adv-x="556" d="M566 685L553 622Q503 651 423 651Q327 651 263 594T176 442H517L506 394H167Q162 350 167 304H488L478 256H176Q198 160 262 104T422 48Q499 48 553 75L559 11Q507 -12 422 -12Q296 -12 212 59T104 256H14L25 304H98Q94 350 98 394H14L25 442H105Q130 565 215 637T424 710Q509 710 566 685Z"  />
<glyph unicode="&#x2113;" horiz-adv-x="500" d="M406 38Q353 -14 286 -14Q236 -14 202 15T167 110V240L108 176H106L85 203L167 287V551Q167 635 201 678T285 721Q329 721 356 689T384 598Q384 525 341 445T218 277V118Q218 91 225 73T244 45T269 30T296 26Q317 26 339 35T384 65H386L406 38H406ZM341 593Q341 634 324 659T284 684Q258 684 238 654T218 558V325Q277 394 309 463T341 593Z"  />
<glyph unicode="&#x2122;" horiz-adv-x="990" d="M478 698H580L702 379L824 698H926V284H863V644H861L723 284H680L543 644H541V284H478V698ZM195 650H64V698H389V650H258V284H195V650Z"  />
<glyph unicode="&#x2126;" horiz-adv-x="748" d="M432 0V183Q519 200 563 261T608 410Q608 462 590 505T540 581T464 631T368 649Q317 649 273 631T196 581T146 505T127 410Q127 368 138 330T172 261T227 211T304 183V0H47V67H240V139Q193 152 158 179T97 242T60 322T47 413Q47 480 72 537T142 634T244 698T368 721Q434 721 492 699T593 636T662 539T688 415Q688 367 676 323T639 243T579 179T496 139V67H688V0H432Z"  />
<glyph unicode="&#x212E;" horiz-adv-x="600" d="M157 259V78Q216 19 302 19Q365 19 411 47T495 139L530 118Q507 82 484 57T433 15T373 -9T302 -17Q243 -17 196 4T114 63T62 151T44 259Q44 317 62 367T114 455T195 513T302 535Q360 535 407 515T489 458T542 371T561 259H157ZM448 295V440Q385 500 301 500Q217 500 157 440V295H448Z"  />
<glyph unicode="&#x2202;" horiz-adv-x="511" d="M389 280Q363 315 325 340T241 365Q208 365 183 352T141 318T116 268T107 210Q107 181 115 152T139 100T181 63T239 48Q281 48 309 71T355 130T381 206T389 280ZM469 362Q469 324 466 282T453 197T428 118T385 51T323 5T237 -12Q190 -12 152 6T88 55T47 127T33 213Q33 257 46 296T86 364T148 410T232 427Q279 427 321 407T393 351Q393 362 393 373T394 396Q394 436 386 482T357 567T304 632T221 658Q187 658 160 645T107 611L65 661Q98 690 135 705T218 721Q291 721 339 688T417 602T457 486T469 362Z"  />
<glyph unicode="&#x2206;" horiz-adv-x="674" d="M333 628L120 72H550L333 628ZM13 0L292 712H375L662 0H13Z"  />
<glyph unicode="&#x220F;" horiz-adv-x="719" d="M572 -214V714H146V-214H68V786H650V-214H572Z"  />
<glyph unicode="&#x2211;" horiz-adv-x="615" d="M25 -214V-150L347 290L39 722V786H577V714H140L441 290L122 -142H589V-214H25Z"  />
<glyph unicode="&#x2212;" horiz-adv-x="600" d="M46 288H553V219H46V288Z"  />
<glyph unicode="&#x2215;" horiz-adv-x="167" d="M261 720H318L-95 -22H-152L261 720Z"  />
<glyph unicode="&#x2219;" horiz-adv-x="278" d="M92 311Q92 335 108 347Q123 359 140 359Q158 359 172 347Q186 335 187 311Q186 288 172 276Q158 264 140 264Q123 264 108 276Q92 288 92 311Z"  />
<glyph unicode="&#x221A;" horiz-adv-x="504" d="M303 -214H228L66 120L19 98L-9 158L103 210L254 -107L438 786H514L303 -214Z"  />
<glyph unicode="&#x221E;" horiz-adv-x="759" d="M337 251Q323 264 306 279T269 308T228 331T187 341Q149 341 128 314T107 252Q107 214 129 190T190 166Q210 166 230 174T270 195T306 222T337 251ZM652 252Q652 290 631 316T570 342Q549 342 529 333T490 310T454 280T423 251Q439 236 455 221T490 194T529 174T573 166Q611 166 631 191T652 252ZM717 255Q717 222 707 194T678 144T632 110T570 98Q541 98 515 107T466 133T421 168T380 207Q359 188 338 169T294 134T245 109T189 99Q156 99 129 110T82 142T53 191T42 252Q42 284 52 312T80 362T126 395T187 408Q217 408 243 398T294 372T339 335T380 294Q400 314 420 334T464 372T513 399T569 410Q603 410 630 398T676 365T706 316T717 255Z"  />
<glyph unicode="&#x222B;" horiz-adv-x="554" d="M420 730Q420 712 408 702T378 692Q366 692 358 698T344 713T333 728T322 735Q307 735 300 715T292 670T291 623T292 594L293 555V44Q293 9 292 -35T280 -119T242 -186T167 -213Q156 -213 144 -210T121 -201T105 -185T98 -161Q98 -147 109 -136T135 -125Q147 -125 154 -131T167 -146T177 -160T187 -167Q200 -167 206 -145T214 -96T216 -45T215 -16V6V501Q215 525 214 555T215 617T223 679T243 733T280 771T341 786Q354 786 368 783T393 774T412 756T420 730Z"  />
<glyph unicode="&#x2248;" horiz-adv-x="593" d="M560 234Q557 206 549 180T525 134T486 101T431 89Q399 89 362 100T288 124T218 149T159 161Q127 161 108 137T84 83H32Q36 110 44 136T68 184T106 218T161 231Q194 231 229 220T301 196T371 171T435 160Q469 160 486 182T510 234H560H560ZM561 415Q558 387 550 361T525 314T486 282T431 269Q398 269 362 280T289 304T219 329T160 340Q128 340 109 316T84 263H33Q36 290 45 316T69 364T107 398T162 411Q194 411 230 400T302 376T372 351T436 340Q470 340 487 362T511 415H561H561Z"  />
<glyph unicode="&#x2260;" horiz-adv-x="593" d="M263 114L187 -32L125 0L184 114H43V186H221L288 313H43V384H326L403 532L465 500L404 384H550V313H367L300 186H550V114H263Z"  />
<glyph unicode="&#x2264;" horiz-adv-x="593" d="M43 -30V42H550V-30H43ZM43 266V341L550 528V450L142 304L550 159V82L43 266Z"  />
<glyph unicode="&#x2265;" horiz-adv-x="593" d="M43 -30V42H550V-30H43ZM43 82V159L451 304L43 450V528L550 341V266L43 82Z"  />
<glyph unicode="&#x25CA;" horiz-adv-x="593" d="M296 671L165 356L296 41L428 356L296 671ZM332 -35H260L89 356L260 747H332L504 356L332 -35Z"  />
<glyph unicode="&#xE300;" horiz-adv-x="222" d="M167 738H121L-5 882H74L167 738Z"  />
<glyph unicode="&#xE301;" horiz-adv-x="222" d="M146 882H225L99 738H53L146 882Z"  />
<glyph unicode="&#xE302;" horiz-adv-x="222" d="M68 882H150L243 738H197L109 840L21 738H-25L68 882Z"  />
<glyph unicode="&#xE303;" horiz-adv-x="222" d="M150 738H68L-25 882H21L109 780L197 882H243L150 738Z"  />
<glyph unicode="&#xE304;" horiz-adv-x="222" d="M-29 755Q-21 790 -2 817Q18 844 52 845Q83 844 113 833Q143 821 157 820Q174 820 188 829Q201 838 206 854H243Q234 801 208 783Q181 765 160 766Q125 767 98 779Q71 790 51 791Q32 791 24 782Q14 773 7 755H-29Z"  />
<glyph unicode="&#xE305;" horiz-adv-x="222" d="M-12 842H63V758H-12V842ZM159 842H234V758H159V842Z"  />
<glyph unicode="&#xE306;" horiz-adv-x="222" d="M-13 822H231V768H-13V822Z"  />
<glyph unicode="&#xE307;" horiz-adv-x="222" d="M16 871Q26 840 53 828Q78 815 109 815Q140 815 167 828Q192 840 202 871H232Q226 820 194 789Q162 755 109 755Q57 755 25 789Q-6 820 -14 871H16Z"  />
<glyph unicode="&#xE308;" horiz-adv-x="222" d="M49 816Q49 790 67 775Q84 757 109 757Q135 757 152 775Q169 790 169 816Q169 842 152 859Q135 875 109 875Q84 875 67 859Q49 842 49 816ZM13 816Q13 858 41 884Q68 910 109 911Q150 910 178 884Q204 858 205 816Q204 775 178 749Q150 721 109 721Q68 721 41 749Q13 775 13 816Z"  />
<glyph unicode="&#xE309;" horiz-adv-x="222" d="M229 882H308L182 738H136L229 882ZM59 882H138L12 738H-34L59 882Z"  />
<glyph unicode="&#xE30A;" horiz-adv-x="222" d="M72 842H147V758H72V842Z"  />
<glyph unicode="&#xE30B;" horiz-adv-x="278" d="M29 709H90L56 545H11L29 709Z"  />
<glyph unicode="&#xE30C;" horiz-adv-x="222" d="M83 -73H157L102 -217H45L83 -73Z"  />
<glyph unicode="&#xE30D;" horiz-adv-x="222" d="M128 572H57L112 716H166L128 572Z"  />
<glyph unicode="&#xFB01;" horiz-adv-x="556" d="M122 456H19V510H122V547Q122 588 126 627Q128 665 141 695Q154 726 182 744Q209 762 257 762Q273 762 290 761Q307 758 316 752L312 697Q291 708 262 708Q231 708 215 694Q198 678 192 655Q186 632 186 606Q185 579 185 554V510H300V456H185V0H122V456ZM466 646H403V730H466V646ZM403 510H466V0H403V510Z"  />
<glyph unicode="&#xFB02;" horiz-adv-x="556" d="M122 456H19V510H122V547Q122 588 126 627Q128 665 141 695Q154 726 182 744Q209 762 257 762Q273 762 290 761Q307 758 316 752L312 697Q291 708 262 708Q231 708 215 694Q198 678 192 655Q186 632 186 606Q185 579 185 554V510H300V456H185V0H122V456ZM403 750H466V0H403V750Z"  />

</font>
</defs>
</svg>
