<?xml  version="1.0" encoding="UTF-8"?>
<!DOCTYPE svg PUBLIC "-//W3C//DTD SVG 1.0//EN" "http://www.w3.org/TR/2001/REC-SVG-20010904/DTD/svg10.dtd" >
<svg xmlns="http://www.w3.org/2000/svg" >
<metadata>
<version>1.0</version>
<id><![CDATA[Frutiger LT W02 65 Bold]]></id>
<vendor>Monotype Imaging Inc.</vendor>
<credits>
<name>Fonts.com WebFonts</name>
<URL>http://webfonts.fonts.com</URL>
<role>Home of the Web fonts</role>
</credits>
<license>
<URL>http://webfonts.fonts.com/Legal</URL>
</license>
<copyright><![CDATA[Part of the digitally encoded machine readable outline data for producing the Typefaces provided is copyrighted © 1981 - 2009 Linotype GmbH, www.linotype.com. All rights reserved. This software is the property of Linotype GmbH, and may not be reproduced, used, displayed, modified, disclosed or transferred without the express written approval of Linotype GmbH.  The digitally encoded machine readable software for producing the Typefaces licensed to you is copyrighted (c) 1988, 1990, 1994 Adobe Systems. All Rights Reserved. This software is the property of Adobe Systems Incorporated and its licensors, and may not be reproduced, used, displayed, modified, disclosed or transferred without the express written approval of Adobe. Frutiger is a trademark of Linotype GmbH registered in the U.S. Patent and Trademark Office and may be registered in certain other jurisdictions. This typeface is original artwork of Adrian Frutiger. The design may be protected in certain jurisdictions.]]></copyright>
<trademark><![CDATA[Frutiger is a trademark of Linotype GmbH registered in the U.S. Patent and Trademark Office and may be registered in certain other jurisdictions.]]></trademark>
<licensee>
<name></name>
</licensee>
</metadata>
<defs >
<font horiz-adv-x="541" id="10c3886a-7856-45f7-951d-24230bc1491a">
<font-face font-family="" panose-1="2 11 8 3 3 5 4 2 2 4" ascent="933" descent="-250" units-per-em="1000" alphabetic="0">
</font-face>
<missing-glyph horiz-adv-x="0" />

<glyph unicode="&#xA;" />
<glyph unicode="&#xD;" horiz-adv-x="0" />
<glyph unicode=" " horiz-adv-x="278" />
<glyph unicode="!" horiz-adv-x="389" d="M118 698H272L251 205H137L118 698ZM125 140H265V0H125V140Z"  />
<glyph unicode="&quot;" horiz-adv-x="481" d="M271 698H393V448H271V698ZM88 698H210V448H88V698Z"  />
<glyph unicode="#" horiz-adv-x="556" d="M494 205H402L373 0H285L314 205H212L182 0H94L123 205H33V285H134L151 413H63V493H163L191 698H280L252 493H354L382 698H470L442 493H523V413H430L413 285H494V205ZM240 413L223 285H325L342 413H240Z"  />
<glyph unicode="$" horiz-adv-x="556" d="M259 590Q236 580 220 559Q204 539 204 503Q204 479 220 463Q234 447 259 434V590ZM306 112Q332 123 348 142Q364 161 364 188Q364 216 348 235Q332 253 306 265V112ZM306 782V710Q394 710 469 685L456 570Q389 599 314 600Q310 600 306 599V414Q340 402 376 387Q411 371 441 348Q472 325 491 289Q510 253 510 199Q509 102 452 52Q395 2 306 -8V-90H259V-11Q253 -12 248 -12Q194 -12 157 -4Q119 3 69 15L82 141Q156 99 240 98Q249 98 259 100V287Q225 300 190 316Q155 332 125 354Q96 376 77 412Q58 446 58 497Q59 600 119 650Q177 700 259 708V782H306Z"  />
<glyph unicode="%" horiz-adv-x="1000" d="M729 68Q769 69 781 105Q791 138 791 172Q791 207 781 241Q769 275 729 276Q691 275 678 241Q664 207 665 172Q664 138 678 105Q691 69 729 68ZM677 720H759L327 -22H245L677 720ZM274 342Q108 344 106 526Q108 707 274 710Q438 707 440 526Q438 344 274 342ZM274 422Q314 423 326 459Q336 492 336 526Q336 561 326 595Q314 629 274 630Q236 629 223 595Q209 561 210 526Q209 492 223 459Q236 423 274 422ZM729 -12Q563 -9 561 172Q563 353 729 356Q893 353 895 172Q893 -9 729 -12Z"  />
<glyph unicode="&amp;" horiz-adv-x="722" d="M279 307Q244 290 220 263Q194 237 194 195Q195 149 230 121Q263 92 312 92Q348 92 380 102Q411 112 434 134L279 307H279ZM310 439Q340 453 369 481Q400 509 401 540Q400 577 378 595Q356 612 324 612Q293 612 269 595Q244 577 244 538Q245 509 268 485Q289 460 310 439ZM516 227Q541 258 551 298Q559 338 560 379H682Q677 243 593 140L718 0H546L499 62Q462 25 412 7Q362 -12 309 -12Q203 -12 133 41Q61 93 60 191Q59 254 92 302Q126 349 207 383Q166 420 139 457Q110 493 110 551Q112 631 180 671Q244 710 322 710Q399 710 460 674Q521 637 523 552Q522 482 485 441Q446 399 388 367L516 227H516Z"  />
<glyph unicode="&apos;" horiz-adv-x="278" d="M78 698H200V448H78V698Z"  />
<glyph unicode="(" horiz-adv-x="333" d="M326 756Q261 656 222 551Q181 445 181 308Q185 58 326 -140H199Q41 58 39 308Q39 445 82 551Q123 656 199 756H326Z"  />
<glyph unicode=")" horiz-adv-x="333" d="M7 -140Q147 58 152 308Q151 445 112 551Q72 656 7 756H133Q209 656 251 551Q294 445 294 308Q291 58 133 -140H7Z"  />
<glyph unicode="*" horiz-adv-x="556" d="M345 475L441 368L349 302L278 426L202 302L111 368L209 475L72 506L105 610L238 553L222 698H336L319 554L452 610L484 506L345 475Z"  />
<glyph unicode="+" horiz-adv-x="600" d="M248 506H352V305H554V201H352V0H248V201H46V305H248V506Z"  />
<glyph unicode="&#x2c;" horiz-adv-x="278" d="M87 140H232L141 -110H23L87 140Z"  />
<glyph unicode="-" horiz-adv-x="333" d="M35 214V324H298V214H35Z"  />
<glyph unicode="." horiz-adv-x="278" d="M69 140H209V0H69V140Z"  />
<glyph unicode="/" horiz-adv-x="389" d="M265 710H369L125 -12H21L265 710Z"  />
<glyph unicode="0" horiz-adv-x="556" d="M277 92Q317 92 339 120Q360 147 369 187Q379 228 381 271Q381 314 381 347Q381 383 380 427Q378 470 368 511Q359 553 338 579Q316 605 277 606Q240 605 219 579Q198 553 188 511Q180 470 177 427Q175 383 175 347Q175 314 177 271Q180 228 188 187Q198 147 219 120Q240 92 277 92ZM277 -12Q198 -11 150 25Q101 59 76 114Q51 169 43 231Q35 292 35 347Q35 414 47 479Q59 543 86 595Q114 647 161 679Q207 710 277 710Q353 709 402 677Q450 643 476 590Q502 537 512 473Q521 409 521 347Q521 286 512 224Q502 162 475 108Q449 55 401 22Q353 -11 277 -12Z"  />
<glyph unicode="1" horiz-adv-x="556" d="M283 698H407V0H267V539L149 443L79 534L283 698Z"  />
<glyph unicode="2" horiz-adv-x="556" d="M41 0V117Q68 142 117 188Q166 232 217 288Q270 345 306 401Q342 457 343 506Q342 554 308 578Q275 600 229 600Q185 600 144 584Q103 567 68 544L57 660Q155 709 264 710Q478 710 483 506Q482 451 459 398Q435 345 395 295Q311 194 220 110H505V0H41Z"  />
<glyph unicode="3" horiz-adv-x="556" d="M53 130Q125 99 208 98Q231 98 257 104Q281 110 304 121Q327 133 341 153Q355 171 355 197Q354 258 312 283Q270 306 201 306H133V416H197Q269 416 310 440Q351 463 352 508Q352 535 343 553Q333 571 316 581Q282 600 232 600Q149 600 75 563L67 675Q153 709 262 710Q296 710 335 704Q375 697 410 677Q446 658 469 623Q491 588 492 531Q491 461 455 423Q418 384 362 364V362Q429 352 462 307Q495 262 495 196Q494 135 471 94Q446 54 406 30Q386 20 365 12Q343 4 320 -2Q273 -12 228 -12Q130 -12 45 11L53 130H53Z"  />
<glyph unicode="4" horiz-adv-x="556" d="M317 249V552H315L142 249H317ZM16 258L277 698H451V249H540V145H451V0H317V145H16V258Z"  />
<glyph unicode="5" horiz-adv-x="556" d="M490 594H221L218 445Q242 451 282 452Q320 452 360 443Q398 433 432 407Q466 382 487 338Q507 294 507 225Q507 125 439 58Q370 -10 235 -12Q148 -11 72 8L75 133Q101 122 137 111Q173 98 218 98Q276 98 320 127Q366 155 367 221Q366 288 317 316Q270 342 207 342Q175 342 145 338Q114 334 82 323L89 698H490V594Z"  />
<glyph unicode="6" horiz-adv-x="556" d="M460 572Q433 584 403 592Q374 600 338 600Q250 598 212 531Q174 466 172 384L174 382Q222 452 309 452Q511 447 513 239Q513 125 457 57Q399 -11 281 -12Q139 -9 90 90Q65 136 55 194Q44 251 44 313Q42 462 104 583Q165 706 331 710Q407 710 478 685L460 572H460ZM278 348Q228 347 206 309Q184 270 184 216Q184 165 207 130Q231 93 281 92Q330 93 352 132Q373 169 373 217Q373 270 351 309Q329 347 278 348Z"  />
<glyph unicode="7" horiz-adv-x="556" d="M50 698H500V582L252 0H100L359 588H50V698Z"  />
<glyph unicode="8" horiz-adv-x="556" d="M163 364Q110 388 79 430Q47 471 47 526Q48 620 111 666Q173 710 269 710Q365 710 433 671Q501 630 503 542Q503 494 475 447Q445 401 387 375V374Q522 310 521 191Q520 86 453 37Q387 -12 281 -12Q177 -12 108 36Q36 83 35 189Q35 303 163 362V364ZM181 522Q181 500 192 484Q203 467 219 455Q236 443 255 434Q273 424 291 417Q322 429 346 457Q368 485 369 518Q369 558 347 582Q324 605 283 606Q244 606 214 585Q182 564 181 522ZM175 191Q176 147 208 121Q238 92 281 92Q324 92 352 117Q380 141 381 185Q380 237 345 265Q310 293 264 306Q226 289 201 262Q175 236 175 191Z"  />
<glyph unicode="9" horiz-adv-x="556" d="M97 126Q151 99 219 98Q309 100 347 167Q383 232 385 314L383 316Q335 245 248 246Q45 251 44 459Q44 575 101 642Q158 709 276 710Q349 709 396 683Q443 656 468 610Q515 513 513 385Q514 237 455 116Q392 -8 226 -12Q150 -12 79 13L97 126H97ZM279 350Q330 351 352 390Q373 428 373 482Q373 533 351 569Q328 605 276 606Q228 605 206 568Q184 530 184 481Q184 429 207 391Q230 351 279 350Z"  />
<glyph unicode=":" horiz-adv-x="278" d="M69 515H209V375H69V515ZM69 140H209V0H69V140Z"  />
<glyph unicode=";" horiz-adv-x="278" d="M87 140H232L141 -110H23L87 140ZM69 515H209V375H69V515Z"  />
<glyph unicode="&lt;" horiz-adv-x="600" d="M46 210V296L554 514V412L181 253L554 94V-8L46 210Z"  />
<glyph unicode="=" horiz-adv-x="600" d="M554 310H46V414H554V310ZM554 92H46V196H554V92Z"  />
<glyph unicode="&gt;" horiz-adv-x="600" d="M419 253L46 412V514L554 296V210L46 -8V94L419 253Z"  />
<glyph unicode="?" horiz-adv-x="500" d="M50 677Q147 709 248 710Q338 710 406 669Q474 626 476 531Q475 480 449 440Q422 400 387 365Q353 330 329 292Q303 253 306 204H183Q184 275 207 319Q228 363 256 392Q286 423 308 450Q329 477 330 515Q329 564 295 586Q260 606 215 606Q134 604 61 566L50 677ZM175 140H315V0H175V140Z"  />
<glyph unicode="@" horiz-adv-x="800" d="M415 446Q365 445 335 405Q303 365 303 318Q303 283 323 260Q343 236 378 236Q427 237 458 278Q489 318 489 366Q489 403 470 424Q450 446 415 446ZM716 143Q599 -14 400 -12Q264 -12 154 79Q40 169 37 349Q38 503 147 605Q253 708 424 710Q552 710 655 641Q760 570 763 416Q762 340 734 288Q705 234 662 201Q621 169 579 154Q538 138 511 138Q489 138 475 152Q459 164 457 190H455Q437 168 411 154Q386 138 354 138Q290 138 246 185Q200 230 199 303Q200 405 260 474Q318 542 405 544Q478 544 521 480L533 528H617L562 285Q555 267 555 251Q554 236 570 236Q610 236 646 279Q682 321 683 413Q683 475 660 515Q637 555 598 577Q580 589 559 598Q538 606 515 610Q470 618 424 618Q297 616 220 538Q142 459 141 349Q142 231 215 157Q286 81 400 80Q461 79 522 92Q583 105 631 143H716Z"  />
<glyph unicode="A" horiz-adv-x="722" d="M358 558H356L255 270H459L358 558ZM281 698H439L713 0H558L498 160H215L154 0H9L281 698Z"  />
<glyph unicode="B" horiz-adv-x="611" d="M221 110H287Q313 110 338 114Q363 119 384 129Q430 149 431 207Q431 241 419 263Q407 284 386 294Q365 306 340 310Q314 312 287 312H221V110ZM221 416H278Q326 415 367 432Q387 441 399 458Q410 474 410 501Q410 532 399 550Q387 568 367 576Q347 585 324 587Q300 588 275 588H221V416ZM81 698H325Q360 698 400 693Q438 686 472 667Q507 648 529 613Q549 577 550 519Q549 457 512 416Q475 375 411 363V361Q484 354 527 311Q570 268 571 202Q571 137 546 97Q521 57 482 36Q444 15 402 8Q359 0 325 0H81V698Z"  />
<glyph unicode="C" horiz-adv-x="611" d="M589 10Q511 -11 430 -12Q258 -12 155 75Q48 160 47 337Q54 706 430 710Q505 710 588 681L578 563Q539 585 502 594Q465 600 427 600Q318 599 257 528Q193 457 193 347Q193 238 256 170Q318 99 430 98Q473 98 516 107Q558 115 583 127L589 10Z"  />
<glyph unicode="D" horiz-adv-x="722" d="M81 698H272Q438 700 554 628Q611 589 643 522Q675 454 675 349Q675 246 643 179Q611 111 554 71Q498 32 426 16Q354 0 272 0H81V698ZM221 110H299Q391 110 459 173Q527 235 529 349Q527 464 459 526Q391 588 299 588H221V110Z"  />
<glyph unicode="E" horiz-adv-x="556" d="M81 698H493V588H221V416H470V306H221V110H495V0H81V698Z"  />
<glyph unicode="F" horiz-adv-x="500" d="M81 698H469V588H221V416H457V306H221V0H81V698Z"  />
<glyph unicode="G" horiz-adv-x="722" d="M626 563Q538 600 446 600Q324 599 259 528Q193 457 193 347Q193 238 256 170Q318 99 430 98Q487 98 522 108V290H374V400H656V24Q544 -10 430 -12Q258 -12 155 75Q48 160 47 337Q54 706 430 710Q548 709 635 681L626 563H626Z"  />
<glyph unicode="H" horiz-adv-x="722" d="M81 698H221V416H501V698H641V0H501V306H221V0H81V698Z"  />
<glyph unicode="I" horiz-adv-x="278" d="M69 698H209V0H69V698Z"  />
<glyph unicode="J" horiz-adv-x="389" d="M22 122Q49 110 89 110Q124 110 143 123Q162 136 169 154Q181 193 180 233V698H320V166Q320 139 311 108Q301 78 279 50Q257 23 220 6Q183 -11 129 -12Q76 -12 22 1V122Z"  />
<glyph unicode="K" horiz-adv-x="667" d="M81 698H221V398L473 698H645L358 369L657 0H474L223 324H221V0H81V698Z"  />
<glyph unicode="L" horiz-adv-x="500" d="M81 698H221V110H492V0H81V698Z"  />
<glyph unicode="M" horiz-adv-x="944" d="M81 698H305L471 169H473L639 698H863V0H729V576H727L539 0H405L217 576L215 574V0H81V698Z"  />
<glyph unicode="N" horiz-adv-x="722" d="M74 698H246L512 176H514V698H648V0H477L210 522H208V0H74V698Z"  />
<glyph unicode="O" horiz-adv-x="778" d="M47 351Q47 514 135 611Q222 709 389 710Q555 708 643 610Q731 513 731 351Q730 190 644 91Q556 -10 389 -12Q221 -10 135 90Q47 188 47 351ZM193 351Q192 253 238 178Q284 100 389 98Q443 98 481 120Q519 142 541 178Q585 253 585 351Q585 448 540 522Q493 598 389 600Q286 598 240 522Q193 448 193 351Z"  />
<glyph unicode="P" horiz-adv-x="556" d="M209 375H258Q313 374 352 397Q390 420 391 479Q391 510 381 531Q370 552 352 564Q314 588 258 588H209V375ZM69 698H246Q364 699 449 656Q535 611 537 487Q536 367 460 316Q384 264 268 265H209V0H69V698Z"  />
<glyph unicode="Q" horiz-adv-x="778" d="M544 -132L422 -10Q407 -12 389 -12Q221 -10 135 90Q47 188 47 351Q47 514 135 611Q222 709 389 710Q555 708 643 610Q731 513 731 351Q730 117 555 25L713 -132H544ZM193 351Q192 253 238 178Q284 100 389 98Q443 98 481 120Q519 142 541 178Q585 253 585 351Q585 448 540 522Q493 598 389 600Q286 598 240 522Q193 448 193 351Z"  />
<glyph unicode="R" horiz-adv-x="611" d="M209 400H255Q282 400 309 404Q335 407 356 417Q377 427 391 446Q403 466 403 497Q403 529 391 548Q377 566 356 575Q335 584 309 587Q282 588 255 588H209V400ZM69 698H220Q278 698 336 697Q394 694 442 677Q491 661 520 621Q548 582 549 509Q549 447 511 402Q473 357 405 347V345Q433 342 451 320Q469 298 479 273L591 0H435L351 218Q338 257 318 274Q297 290 254 290H209V0H69V698Z"  />
<glyph unicode="S" horiz-adv-x="556" d="M456 570Q389 599 314 600Q296 600 278 596Q259 592 242 581Q226 571 215 551Q204 532 204 503Q204 481 218 466Q232 451 253 439Q276 427 303 417Q329 406 358 394Q387 383 414 368Q442 352 463 329Q484 307 498 276Q510 244 510 199Q508 86 433 37Q358 -12 248 -12Q194 -12 157 -4Q119 3 69 15L82 141Q156 99 240 98Q283 98 323 120Q363 142 364 188Q364 213 352 231Q338 249 317 261Q271 285 212 307Q183 319 157 335Q130 350 107 371Q86 393 72 424Q58 455 58 497Q60 613 135 663Q207 710 302 710Q392 710 469 685L456 570H456Z"  />
<glyph unicode="T" horiz-adv-x="556" d="M208 588H8V698H548V588H348V0H208V588Z"  />
<glyph unicode="U" horiz-adv-x="722" d="M76 698H216V295Q215 205 249 153Q283 98 361 98Q441 98 474 153Q506 205 506 295V698H646V252Q642 -16 361 -12Q80 -16 76 252V698Z"  />
<glyph unicode="V" horiz-adv-x="667" d="M10 698H160L339 150H341L518 698H657L422 0H250L10 698Z"  />
<glyph unicode="W" horiz-adv-x="1000" d="M10 698H157L287 140H289L408 698H598L721 140H723L854 698H990L808 0H628L502 558H500L376 0H195L10 698Z"  />
<glyph unicode="X" horiz-adv-x="667" d="M239 363L31 698H193L339 449L488 698H638L428 363L657 0H492L331 272L168 0H10L239 363Z"  />
<glyph unicode="Y" horiz-adv-x="667" d="M266 276L11 698H175L340 405L508 698H656L406 276V0H266V276Z"  />
<glyph unicode="Z" horiz-adv-x="556" d="M36 114L364 588H49V698H513V584L182 110H520V0H36V114Z"  />
<glyph unicode="[" horiz-adv-x="333" d="M72 756H296V658H200V-42H296V-140H72V756Z"  />
<glyph unicode="\" horiz-adv-x="389" d="M20 710H124L368 -12H264L20 710Z"  />
<glyph unicode="]" horiz-adv-x="333" d="M261 756V-140H37V-42H133V658H37V756H261Z"  />
<glyph unicode="^" horiz-adv-x="600" d="M66 313L253 698H347L534 313H430L300 593L170 313H66Z"  />
<glyph unicode="_" horiz-adv-x="500" d="M500 -75V-125H0V-75H500Z"  />
<glyph unicode="`" horiz-adv-x="278" d="M249 585H166L29 731H166L249 585Z"  />
<glyph unicode="a" horiz-adv-x="556" d="M92 488Q178 526 271 527Q496 530 493 310V244Q493 169 495 115Q497 58 501 0H383Q377 47 377 77H375Q351 35 308 12Q264 -12 216 -12Q146 -11 93 28Q37 67 36 141Q36 199 62 235Q86 271 124 288Q164 307 209 313Q255 318 297 318H371Q371 380 343 405Q315 429 255 429Q167 428 96 373L92 488ZM164 149Q164 117 189 102Q212 86 249 86Q311 87 343 132Q372 177 371 238H313Q302 238 290 238Q278 238 266 236Q240 233 217 224Q194 215 180 197Q164 179 164 149Z"  />
<glyph unicode="b" horiz-adv-x="611" d="M204 259Q203 201 231 149Q245 125 267 109Q289 92 322 92Q355 92 378 109Q400 125 412 149Q425 175 431 204Q435 233 435 259Q435 315 413 368Q401 393 379 408Q357 423 324 423Q260 421 232 368Q204 317 204 259ZM69 750H203V449H205Q257 526 359 527Q476 525 527 447Q576 369 575 259Q576 150 527 71Q476 -10 359 -12Q316 -12 274 5Q232 23 201 63H199V0H69V750Z"  />
<glyph unicode="c" horiz-adv-x="444" d="M403 404Q386 413 365 418Q343 423 312 423Q250 422 214 379Q176 335 176 260Q176 188 211 141Q245 93 315 92Q344 92 373 101Q401 108 418 116L424 5Q396 -4 364 -7Q332 -12 290 -12Q164 -11 101 66Q36 141 36 260Q36 375 101 450Q165 526 285 527Q363 527 415 510L403 404Z"  />
<glyph unicode="d" horiz-adv-x="611" d="M176 259Q175 203 200 149Q213 125 235 109Q256 92 289 92Q324 92 346 109Q369 125 382 149Q396 174 402 203Q407 232 407 259Q407 317 380 368Q365 393 343 408Q320 423 287 423Q224 421 199 368Q187 344 182 315Q176 286 176 259ZM412 58H410Q348 -13 252 -12Q135 -10 85 71Q35 150 36 259Q35 369 85 447Q135 525 252 527Q349 527 406 455H408V750H542V0H412V58Z"  />
<glyph unicode="e" horiz-adv-x="556" d="M392 308Q390 359 365 393Q339 428 283 429Q228 428 198 395Q168 361 164 308H392ZM482 29Q411 -12 305 -12Q39 -8 36 255Q36 370 96 448Q156 525 275 527Q416 526 470 440Q521 354 520 216H164Q169 154 209 121Q249 86 311 86Q360 86 403 102Q445 116 482 138V29Z"  />
<glyph unicode="f" horiz-adv-x="389" d="M118 417H19V515H118V587Q118 666 161 714Q202 761 282 762Q337 761 380 751L369 640Q360 647 347 653Q334 658 311 658Q278 657 265 634Q252 610 252 579V515H369V417H252V0H118V417Z"  />
<glyph unicode="g" horiz-adv-x="611" d="M290 104Q353 105 381 152Q408 197 408 263Q408 331 382 376Q354 422 296 423Q229 421 203 372Q175 323 176 260Q176 204 205 156Q220 133 241 119Q262 104 290 104ZM542 515V50Q542 25 540 -1Q537 -27 531 -51Q518 -100 487 -138Q458 -176 404 -198Q351 -221 270 -222Q189 -223 92 -187L103 -73Q136 -90 178 -103Q220 -117 253 -118Q308 -117 341 -99Q372 -80 387 -51Q402 -21 406 14Q408 49 408 82H406Q387 48 346 25Q304 0 246 0Q133 2 85 79Q35 153 36 260Q35 358 88 441Q140 524 254 527Q356 528 412 445H414V515H542Z"  />
<glyph unicode="h" horiz-adv-x="611" d="M69 750H203V445H205Q259 525 367 527Q458 526 501 470Q542 414 542 325V0H408V275Q408 300 407 326Q406 352 397 373Q390 396 372 410Q353 423 321 423Q285 423 263 406Q241 389 227 363Q214 337 209 308Q203 278 203 252V0H69V750Z"  />
<glyph unicode="i" horiz-adv-x="278" d="M72 515H206V0H72V515ZM72 737H206V609H72V737Z"  />
<glyph unicode="j" horiz-adv-x="278" d="M-10 -118Q43 -116 59 -97Q73 -78 72 -20V515H206V-38Q206 -65 201 -96Q195 -128 179 -157Q163 -184 133 -203Q102 -221 51 -222Q14 -222 -15 -214L-10 -118ZM72 737H206V609H72V737Z"  />
<glyph unicode="k" horiz-adv-x="556" d="M72 750H206V309H208L368 515H526L334 285L550 0H380L208 250H206V0H72V750Z"  />
<glyph unicode="l" horiz-adv-x="278" d="M72 750H206V0H72V750Z"  />
<glyph unicode="m" horiz-adv-x="889" d="M67 515H192V443H194Q227 490 268 509Q309 527 347 527Q455 528 499 436Q524 483 569 505Q612 527 660 527Q754 526 790 470Q824 414 823 325V0H689V307Q690 346 680 383Q673 401 658 412Q642 423 612 423Q579 423 560 406Q539 389 529 362Q519 336 516 307Q512 276 512 250V0H378V307Q379 346 369 383Q362 401 347 412Q331 423 301 423Q268 423 249 406Q228 389 218 362Q208 336 205 307Q201 276 201 250V0H67V515Z"  />
<glyph unicode="n" horiz-adv-x="611" d="M69 515H196V445H198Q262 528 367 527Q458 526 501 470Q542 414 542 325V0H408V275Q408 300 407 326Q406 352 397 373Q390 396 372 410Q353 423 321 423Q285 423 263 406Q241 389 227 363Q214 337 209 308Q203 278 203 252V0H69V515Z"  />
<glyph unicode="o" horiz-adv-x="611" d="M36 254Q37 383 114 455Q189 526 305 527Q423 526 498 455Q574 383 575 254Q575 141 505 66Q435 -10 305 -12Q177 -10 107 66Q36 141 36 254ZM176 270Q176 255 178 240Q180 223 183 208Q189 176 203 150Q218 124 243 109Q267 92 305 92Q344 92 370 108Q395 123 410 149Q425 175 430 207Q435 238 435 270Q435 332 404 377Q371 422 305 423Q241 422 209 376Q176 331 176 270Z"  />
<glyph unicode="p" horiz-adv-x="611" d="M69 515H197V442H199Q242 524 359 527Q476 525 527 447Q576 369 575 259Q576 150 527 71Q476 -10 356 -12Q314 -12 278 3Q241 18 205 59H203V-210H69V515ZM324 423Q260 421 232 368Q204 317 204 259Q203 201 231 149Q245 125 267 109Q289 92 322 92Q355 92 378 109Q400 125 412 149Q425 175 431 204Q435 233 435 259Q435 315 413 368Q401 393 379 408Q357 423 324 423Z"  />
<glyph unicode="q" horiz-adv-x="611" d="M408 59H406Q372 18 335 3Q298 -12 255 -12Q136 -10 86 71Q35 150 36 259Q35 369 86 447Q136 525 255 527Q367 525 412 442H414V515H542V-210H408V59ZM287 423Q224 421 199 368Q187 344 182 315Q176 286 176 259Q175 203 200 149Q213 125 235 109Q256 92 289 92Q324 92 346 109Q369 125 382 149Q396 174 402 203Q407 232 407 259Q407 317 380 368Q365 393 343 408Q320 423 287 423Z"  />
<glyph unicode="r" horiz-adv-x="389" d="M72 515H191V398H193Q199 438 237 481Q274 525 334 527Q354 527 375 523V388Q354 399 315 399Q275 399 253 377Q231 356 220 322Q210 290 208 254Q206 219 206 189V0H72V515Z"  />
<glyph unicode="s" horiz-adv-x="444" d="M375 407Q346 418 319 424Q292 429 255 429Q227 429 203 418Q177 405 176 372Q177 343 213 331Q230 324 251 318Q272 312 293 304Q316 297 337 286Q357 274 373 258Q390 241 400 217Q409 192 409 156Q407 67 343 27Q279 -12 193 -12Q116 -11 41 10L49 120Q112 86 181 86Q209 86 238 100Q268 113 269 149Q269 169 260 182Q250 194 233 201Q198 215 153 227Q132 234 111 244Q90 254 73 270Q56 286 47 310Q36 333 36 367Q37 451 99 489Q157 527 238 527Q285 527 320 522Q354 516 384 508L375 407Z"  />
<glyph unicode="t" horiz-adv-x="389" d="M113 417H14V515H113V618L247 661V515H366V417H247V177Q246 143 260 119Q273 93 310 92Q348 92 371 106L375 0Q335 -12 276 -12Q114 -8 113 155V417Z"  />
<glyph unicode="u" horiz-adv-x="611" d="M542 0H415V70H413Q350 -10 244 -12Q153 -11 112 46Q69 102 69 190V515H203V240Q203 229 205 217Q205 205 206 192Q208 166 215 143Q224 121 241 107Q259 92 290 92Q327 92 351 111Q374 128 386 154Q400 180 404 209Q408 238 408 263V515H542V0Z"  />
<glyph unicode="v" horiz-adv-x="556" d="M12 515H156L284 140H286L410 515H544L354 0H203L12 515Z"  />
<glyph unicode="w" horiz-adv-x="889" d="M11 515H153L267 134H269L373 515H529L641 134H643L750 515H878L720 0H562L450 393H448L338 0H185L11 515Z"  />
<glyph unicode="x" horiz-adv-x="556" d="M27 515H185L286 347L385 515H527L373 270L547 0H387L272 192L156 0H9L186 270L27 515Z"  />
<glyph unicode="y" horiz-adv-x="556" d="M283 139H285L409 515H545L352 4Q337 -38 321 -78Q305 -119 282 -151Q260 -183 226 -202Q190 -222 138 -222Q90 -222 43 -208L52 -109Q75 -118 121 -118Q162 -117 185 -92Q208 -67 208 -26L11 515H159L283 139Z"  />
<glyph unicode="z" horiz-adv-x="500" d="M47 515H455V405L199 104H464V0H36V109L297 411H47V515Z"  />
<glyph unicode="{" horiz-adv-x="333" d="M18 351Q48 350 74 372Q86 383 94 401Q100 419 100 444V621Q101 691 147 724Q192 756 248 756H323V676H278Q246 676 237 657Q227 638 228 603V430Q228 396 217 373Q206 349 189 336Q152 311 116 309V307Q133 306 153 301Q172 295 189 282Q206 269 217 245Q228 220 228 179V13Q227 -22 237 -40Q246 -60 278 -60H323V-140H248Q189 -140 146 -106Q101 -73 100 -5V165Q99 222 74 245Q48 265 18 265V351Z"  />
<glyph unicode="|" horiz-adv-x="222" d="M163 750V-250H59V750H163Z"  />
<glyph unicode="}" horiz-adv-x="333" d="M315 265Q287 265 261 245Q249 233 241 214Q233 195 233 165V-5Q232 -74 188 -107Q144 -140 85 -140H10V-60H55Q87 -60 97 -40Q105 -22 105 13V179Q105 220 118 245Q129 269 146 282Q182 307 217 307V309Q202 311 183 317Q163 323 146 336Q129 349 118 373Q105 396 105 430V603Q105 638 97 657Q87 676 55 676H10V756H85Q144 756 188 724Q232 691 233 621V444Q234 392 261 372Q287 350 315 351V265Z"  />
<glyph unicode="~" horiz-adv-x="600" d="M69 252Q85 285 115 312Q144 339 190 340Q228 340 256 330Q284 320 307 306Q334 293 360 282Q385 270 412 270Q439 271 459 294Q479 315 495 342L531 254Q513 221 484 195Q455 167 416 166Q382 166 354 178Q326 187 300 201Q275 215 250 226Q224 236 191 236Q157 235 137 214Q117 192 105 164L69 252Z"  />
<glyph unicode="&#xA0;" horiz-adv-x="278" />
<glyph unicode="&#xA1;" horiz-adv-x="389" d="M138 310H249L271 -183H117L138 310ZM123 515H263V375H123V515Z"  />
<glyph unicode="&#xA2;" horiz-adv-x="556" d="M343 423Q289 416 258 373Q226 329 226 260Q226 191 258 145L343 423ZM459 608L431 517Q449 515 465 510L453 404Q431 415 401 420L304 105Q330 92 365 92Q394 92 423 101Q451 108 468 116L474 5Q446 -4 414 -7Q382 -12 340 -12Q303 -12 270 -4L243 -90H185L217 14Q86 85 86 260Q86 375 151 450Q215 526 335 527Q357 527 375 525L401 608H459Z"  />
<glyph unicode="&#xA3;" horiz-adv-x="556" d="M54 104H142V323H66V403H142V487Q143 589 213 649Q280 709 382 710Q461 710 512 693L505 583Q485 590 461 595Q438 600 408 600Q343 599 313 561Q282 523 282 470V403H429V323H282V104H505V0H54V104Z"  />
<glyph unicode="&#xA4;" horiz-adv-x="556" d="M538 552L480 494Q526 429 526 352Q526 276 480 208L538 150L479 91L421 149Q355 103 278 103Q201 103 135 149L77 91L18 150L76 208Q30 276 30 351Q30 428 76 494L18 552L77 611L135 553Q201 599 278 599Q355 599 421 553L479 611L538 552ZM140 351Q141 291 181 250Q220 208 278 207Q337 208 376 250Q415 291 416 351Q415 413 376 453Q337 494 278 495Q220 494 181 453Q141 413 140 351Z"  />
<glyph unicode="&#xA5;" horiz-adv-x="556" d="M394 369H492V289H352L345 276V227H492V147H345V0H211V147H64V227H211V276L203 289H64V369H164L-10 698H131L282 390L436 698H567L394 369Z"  />
<glyph unicode="&#xA6;" horiz-adv-x="222" d="M163 675V325H59V675H163ZM163 175V-175H59V175H163Z"  />
<glyph unicode="&#xA7;" horiz-adv-x="556" d="M170 309Q170 285 192 269Q213 251 242 238Q273 225 303 215Q332 203 351 191Q386 219 387 266Q387 293 371 309Q354 325 327 337Q301 349 270 359Q238 370 206 383Q192 374 182 354Q170 334 170 309ZM440 581Q372 606 297 606Q258 606 231 593Q202 578 201 538Q201 519 213 506Q225 491 246 481Q289 461 345 443Q403 425 446 390Q490 355 491 287Q490 203 417 159Q484 118 485 45Q483 -44 416 -89Q349 -136 264 -136Q170 -134 79 -107L88 7Q168 -30 256 -32Q299 -32 328 -17Q356 -1 357 37Q357 56 345 71Q333 86 312 96Q270 116 212 135Q185 146 160 159Q134 171 113 188Q67 222 66 285Q67 378 143 420Q110 443 92 471Q73 499 73 539Q75 627 144 669Q209 710 291 710Q372 709 451 690L440 581H440Z"  />
<glyph unicode="&#xA8;" horiz-adv-x="278" d="M300 737V609H184V737H300ZM-22 609V737H94V609H-22Z"  />
<glyph unicode="&#xA9;" horiz-adv-x="800" d="M657 349Q656 476 583 553Q510 629 400 630Q290 629 218 553Q144 476 143 349Q144 223 218 147Q290 69 400 68Q510 69 583 147Q656 223 657 349ZM589 291Q577 217 529 179Q480 139 414 139Q320 140 266 201Q210 260 210 352Q210 446 264 505Q317 564 412 565Q481 565 528 527Q574 489 586 415H506Q499 451 474 469Q448 485 412 485Q362 484 336 449Q308 412 308 353Q308 296 338 259Q366 219 414 219Q452 219 478 238Q503 256 506 291H589ZM39 349Q41 503 146 605Q248 708 400 710Q554 708 656 605Q759 503 761 349Q759 197 656 95Q554 -10 400 -12Q248 -10 146 95Q41 197 39 349Z"  />
<glyph unicode="&#xAA;" horiz-adv-x="361" d="M249 392L246 434H244Q232 406 207 395Q181 384 150 384Q107 384 69 404Q51 414 40 432Q28 448 28 472Q28 510 46 532Q62 554 88 566Q114 578 145 582Q176 584 205 584H242Q242 624 223 638Q204 650 169 650Q112 649 64 619V685Q118 710 184 710Q329 713 328 574Q328 476 333 392H249ZM114 477Q114 458 133 451Q150 444 166 444Q204 444 224 470Q243 495 243 530H213Q199 530 182 530Q165 529 150 524Q135 520 125 509Q114 498 114 477Z"  />
<glyph unicode="&#xAB;" horiz-adv-x="556" d="M390 474H516L406 269L516 64H390L272 269L390 474ZM167 474H293L183 269L293 64H167L49 269L167 474Z"  />
<glyph unicode="&#xAC;" horiz-adv-x="600" d="M450 310H46V414H554V108H450V310Z"  />
<glyph unicode="&#xAD;" horiz-adv-x="333" d="M35 214V324H298V214H35Z"  />
<glyph unicode="&#xAE;" horiz-adv-x="800" d="M39 349Q41 503 146 605Q248 708 400 710Q554 708 656 605Q759 503 761 349Q759 197 656 95Q554 -10 400 -12Q248 -10 146 95Q41 197 39 349ZM143 349Q144 223 218 147Q290 69 400 68Q510 69 583 147Q656 223 657 349Q656 476 583 553Q510 629 400 630Q290 629 218 553Q144 476 143 349ZM255 551H406Q483 551 525 525Q566 498 566 431Q565 378 537 353Q508 328 460 324L566 150H478L382 320H341V150H255V551ZM411 386Q443 385 461 396Q480 406 480 439Q479 470 454 478Q430 485 402 485H341V386H411Z"  />
<glyph unicode="&#xAF;" horiz-adv-x="278" d="M-5 618V698H283V618H-5Z"  />
<glyph unicode="&#xB0;" horiz-adv-x="400" d="M200 637Q160 636 137 613Q112 589 112 549Q112 509 137 486Q160 461 200 461Q240 461 264 486Q287 509 288 549Q287 589 264 613Q240 636 200 637ZM200 710Q269 709 314 663Q360 618 361 549Q360 480 315 435Q270 389 200 388Q130 388 85 434Q39 479 39 549Q40 618 87 663Q132 709 200 710Z"  />
<glyph unicode="&#xB1;" horiz-adv-x="600" d="M248 506H352V374H554V270H352V137H248V270H46V374H248V506ZM46 104H554V0H46V104Z"  />
<glyph unicode="&#xB2;" horiz-adv-x="361" d="M30 282V364Q46 371 77 394Q107 418 138 450Q170 484 192 518Q214 550 214 572Q214 623 153 624Q95 624 48 590L41 677Q104 710 176 710Q242 710 286 681Q329 651 330 581Q330 551 313 519Q296 487 269 456Q210 393 161 370V368H332V282H30Z"  />
<glyph unicode="&#xB3;" horiz-adv-x="361" d="M41 686Q109 710 170 710Q222 710 274 689Q299 677 314 658Q329 637 329 607Q329 525 246 502V500Q290 496 313 470Q335 442 335 404Q335 369 319 345Q302 320 275 305Q217 276 152 276Q94 276 26 293L31 376Q89 356 139 356Q169 356 194 370Q218 382 219 407Q218 435 198 447Q176 456 146 456Q111 456 90 453V537Q112 536 148 536Q171 536 195 548Q218 559 219 584Q218 611 201 621Q183 630 155 630Q130 630 101 625Q72 619 46 604L41 686Z"  />
<glyph unicode="&#xB4;" horiz-adv-x="278" d="M112 731H249L112 585H29L112 731Z"  />
<glyph unicode="&#xB5;" horiz-adv-x="611" d="M69 515H203V240Q203 229 205 217Q205 205 206 192Q208 166 215 143Q224 121 241 107Q259 92 290 92Q327 92 351 111Q374 128 386 154Q400 180 404 209Q408 238 408 263V515H542V0H415V70H413Q402 42 372 16Q342 -11 302 -12Q278 -12 253 -6Q228 -1 205 22H203V-210H69V515Z"  />
<glyph unicode="&#xB6;" horiz-adv-x="620" d="M221 341Q4 345 2 516Q3 620 71 660Q136 699 242 698H535V-124H431V618H325V-124H221V341Z"  />
<glyph unicode="&#xB7;" horiz-adv-x="278" d="M139 207Q104 207 84 229Q62 251 62 284Q62 319 84 340Q104 360 139 361Q174 360 196 340Q216 319 216 284Q216 251 196 229Q174 207 139 207Z"  />
<glyph unicode="&#xB8;" horiz-adv-x="278" d="M95 -147Q110 -151 128 -156Q144 -161 165 -162Q185 -162 201 -154Q217 -146 218 -127Q218 -108 205 -99Q193 -90 174 -91Q150 -91 132 -100L117 -74L176 0H239L193 -53L195 -55Q213 -49 236 -49Q267 -49 291 -65Q315 -82 316 -118Q315 -174 276 -198Q238 -222 191 -222Q150 -221 122 -215Q94 -210 75 -201L95 -147Z"  />
<glyph unicode="&#xB9;" horiz-adv-x="361" d="M151 704H245V282H141V602L64 543L12 604L151 704Z"  />
<glyph unicode="&#xBA;" horiz-adv-x="397" d="M200 710Q274 710 324 667Q375 624 376 548Q375 471 325 428Q275 384 199 384Q124 384 74 428Q22 471 21 548Q22 624 75 667Q127 710 200 710ZM202 650Q157 649 138 620Q119 590 119 548Q118 505 136 475Q153 444 200 444Q247 445 264 477Q278 507 278 548Q278 588 262 618Q245 649 202 650Z"  />
<glyph unicode="&#xBB;" horiz-adv-x="556" d="M166 64H40L150 269L40 474H166L284 269L166 64ZM389 64H263L373 269L263 474H389L507 269L389 64Z"  />
<glyph unicode="&#xBC;" horiz-adv-x="834" d="M581 720H663L246 -22H164L581 720ZM159 704H253V282H149V602L72 543L20 604L159 704ZM656 159V330H654L540 159H656ZM455 164L635 422H760V159H808V79H760V0H656V79H455V164Z"  />
<glyph unicode="&#xBD;" horiz-adv-x="834" d="M551 720H633L216 -22H134L551 720ZM149 704H243V282H139V602L62 542L10 603L149 704ZM499 82Q515 89 546 112Q576 136 607 168Q639 202 661 236Q683 268 683 290Q683 341 622 342Q564 342 517 308L510 395Q573 428 645 428Q711 428 755 399Q798 369 799 299Q799 269 782 237Q765 205 738 174Q679 111 630 88V86H801V0H499V82Z"  />
<glyph unicode="&#xBE;" horiz-adv-x="834" d="M593 720H675L258 -22H176L593 720ZM29 686Q97 710 158 710Q210 710 262 689Q287 677 302 658Q317 637 317 607Q317 525 234 502V500Q278 496 301 470Q323 442 323 404Q323 369 307 345Q290 320 263 305Q205 276 140 276Q82 276 14 293L19 376Q75 356 133 356Q163 356 188 370Q212 382 213 407Q212 435 188 447Q164 456 134 456Q99 456 78 453V537Q100 536 136 536Q164 536 188 548Q212 559 213 584Q212 611 192 621Q171 630 143 630Q118 630 89 625Q60 619 34 604L29 686ZM668 330H666L554 159H668V330ZM772 0H668V79H467V164L647 422H772V159H820V79H772V0Z"  />
<glyph unicode="&#xBF;" horiz-adv-x="500" d="M450 -162Q405 -181 353 -188Q302 -195 252 -195Q162 -195 95 -153Q25 -111 24 -16Q25 36 53 76Q80 116 114 151Q149 187 173 225Q197 264 194 311H317Q316 242 295 198Q273 154 244 124Q216 95 194 67Q171 40 170 0Q170 -25 181 -42Q192 -60 208 -71Q244 -91 285 -91Q367 -90 439 -51L450 -162ZM324 375H184V515H324V375Z"  />
<glyph unicode="&#xC0;" horiz-adv-x="722" d="M358 558H356L255 270H459L358 558ZM281 698H439L713 0H558L498 160H215L154 0H9L281 698ZM451 740H368L231 886H368L451 740Z"  />
<glyph unicode="&#xC1;" horiz-adv-x="722" d="M358 558H356L255 270H459L358 558ZM281 698H439L713 0H558L498 160H215L154 0H9L281 698ZM368 886H505L368 740H285L368 886Z"  />
<glyph unicode="&#xC2;" horiz-adv-x="722" d="M358 558H356L255 270H459L358 558ZM281 698H439L713 0H558L498 160H215L154 0H9L281 698ZM417 886L522 740H433L365 826L295 740H206L316 886H417Z"  />
<glyph unicode="&#xC3;" horiz-adv-x="722" d="M358 558H356L255 270H459L358 558ZM281 698H439L713 0H558L498 160H215L154 0H9L281 698ZM188 758Q189 805 218 842Q246 878 290 879Q313 879 332 873Q352 867 371 859Q390 851 408 845Q425 837 444 837Q488 839 488 886H542Q542 835 518 801Q492 766 445 765Q418 765 399 771Q378 776 359 783Q321 801 291 802Q266 801 254 788Q242 774 242 758H188Z"  />
<glyph unicode="&#xC4;" horiz-adv-x="722" d="M358 558H356L255 270H459L358 558ZM281 698H439L713 0H558L498 160H215L154 0H9L281 698ZM528 880V764H412V880H528ZM206 764V880H322V764H206Z"  />
<glyph unicode="&#xC5;" horiz-adv-x="722" d="M358 558H356L255 270H459L358 558ZM281 698H439L713 0H558L498 160H215L154 0H9L281 698ZM367 879Q345 879 331 864T317 828Q317 806 331 792T367 778Q389 778 403 792T418 828Q418 850 404 864T367 879ZM472 828Q472 807 464 788T441 755T407 732T367 724Q346 724 327 732T294 755T272 788T263 828Q263 849 271 868T293 901T327 924T367 933Q388 933 407 925T441 902T463 869T472 828Z"  />
<glyph unicode="&#xC6;" horiz-adv-x="945" d="M480 594H478L305 270H503L480 594ZM391 698H465H609H890V588H619L633 416H868V306H645L661 110H894V0H671H525L513 160H245L159 0H9L391 698Z"  />
<glyph unicode="&#xC7;" horiz-adv-x="611" d="M589 10Q511 -11 430 -12Q422 -12 416 -11L380 -53L382 -55Q400 -49 423 -49Q454 -49 478 -65Q502 -82 503 -118Q502 -174 463 -198Q425 -222 378 -222Q337 -221 309 -215Q281 -210 262 -201L282 -147Q297 -151 315 -156Q331 -161 352 -162Q372 -162 388 -154Q404 -146 405 -127Q405 -108 392 -99Q380 -90 361 -91Q337 -91 319 -100L304 -74L358 -6Q54 23 47 337Q54 706 430 710Q505 710 588 681L578 563Q539 585 502 594Q465 600 427 600Q318 599 257 528Q193 457 193 347Q193 238 256 170Q318 99 430 98Q473 98 516 107Q558 115 583 127L589 10Z"  />
<glyph unicode="&#xC8;" horiz-adv-x="556" d="M81 698H493V588H221V416H470V306H221V110H495V0H81V698ZM364 740H281L144 886H281L364 740Z"  />
<glyph unicode="&#xC9;" horiz-adv-x="556" d="M81 698H493V588H221V416H470V306H221V110H495V0H81V698ZM280 886H417L280 740H197L280 886Z"  />
<glyph unicode="&#xCA;" horiz-adv-x="556" d="M81 698H493V588H221V416H470V306H221V110H495V0H81V698ZM333 886L438 740H349L281 826L211 740H122L232 886H333Z"  />
<glyph unicode="&#xCB;" horiz-adv-x="556" d="M81 698H493V588H221V416H470V306H221V110H495V0H81V698ZM441 880V764H325V880H441ZM119 764V880H235V764H119Z"  />
<glyph unicode="&#xCC;" horiz-adv-x="278" d="M69 698H209V0H69V698ZM224 740H141L4 886H141L224 740Z"  />
<glyph unicode="&#xCD;" horiz-adv-x="278" d="M69 698H209V0H69V698ZM139 886H276L139 740H56L139 886Z"  />
<glyph unicode="&#xCE;" horiz-adv-x="278" d="M69 698H209V0H69V698ZM191 886L296 740H207L139 826L69 740H-20L90 886H191Z"  />
<glyph unicode="&#xCF;" horiz-adv-x="278" d="M69 698H209V0H69V698ZM299 880V764H183V880H299ZM-23 764V880H93V764H-23Z"  />
<glyph unicode="&#xD0;" horiz-adv-x="722" d="M81 336H17V422H81V698H272Q438 700 554 628Q611 589 643 522Q675 454 675 349Q675 246 643 179Q611 111 554 71Q498 32 426 16Q354 0 272 0H81V336ZM221 110H299Q391 110 459 173Q527 235 529 349Q527 464 459 526Q391 588 299 588H221V422H367V336H221V110Z"  />
<glyph unicode="&#xD1;" horiz-adv-x="722" d="M74 698H246L512 176H514V698H648V0H477L210 522H208V0H74V698ZM188 758Q189 805 218 842Q246 878 290 879Q313 879 332 873Q352 867 371 859Q390 851 408 845Q425 837 444 837Q488 839 488 886H542Q542 835 518 801Q492 766 445 765Q418 765 399 771Q378 776 359 783Q321 801 291 802Q266 801 254 788Q242 774 242 758H188Z"  />
<glyph unicode="&#xD2;" horiz-adv-x="778" d="M47 351Q47 514 135 611Q222 709 389 710Q555 708 643 610Q731 513 731 351Q730 190 644 91Q556 -10 389 -12Q221 -10 135 90Q47 188 47 351ZM193 351Q192 253 238 178Q284 100 389 98Q443 98 481 120Q519 142 541 178Q585 253 585 351Q585 448 540 522Q493 598 389 600Q286 598 240 522Q193 448 193 351ZM479 740H396L259 886H396L479 740Z"  />
<glyph unicode="&#xD3;" horiz-adv-x="778" d="M47 351Q47 514 135 611Q222 709 389 710Q555 708 643 610Q731 513 731 351Q730 190 644 91Q556 -10 389 -12Q221 -10 135 90Q47 188 47 351ZM193 351Q192 253 238 178Q284 100 389 98Q443 98 481 120Q519 142 541 178Q585 253 585 351Q585 448 540 522Q493 598 389 600Q286 598 240 522Q193 448 193 351ZM396 886H533L396 740H313L396 886Z"  />
<glyph unicode="&#xD4;" horiz-adv-x="778" d="M47 351Q47 514 135 611Q222 709 389 710Q555 708 643 610Q731 513 731 351Q730 190 644 91Q556 -10 389 -12Q221 -10 135 90Q47 188 47 351ZM193 351Q192 253 238 178Q284 100 389 98Q443 98 481 120Q519 142 541 178Q585 253 585 351Q585 448 540 522Q493 598 389 600Q286 598 240 522Q193 448 193 351ZM445 886L550 740H461L393 826L323 740H234L344 886H445Z"  />
<glyph unicode="&#xD5;" horiz-adv-x="778" d="M47 351Q47 514 135 611Q222 709 389 710Q555 708 643 610Q731 513 731 351Q730 190 644 91Q556 -10 389 -12Q221 -10 135 90Q47 188 47 351ZM193 351Q192 253 238 178Q284 100 389 98Q443 98 481 120Q519 142 541 178Q585 253 585 351Q585 448 540 522Q493 598 389 600Q286 598 240 522Q193 448 193 351ZM216 758Q217 805 246 842Q274 878 318 879Q341 879 360 873Q380 867 399 859Q418 851 436 845Q453 837 472 837Q516 839 516 886H570Q570 835 546 801Q520 766 473 765Q446 765 427 771Q406 776 387 783Q349 801 319 802Q294 801 282 788Q270 774 270 758H216Z"  />
<glyph unicode="&#xD6;" horiz-adv-x="778" d="M47 351Q47 514 135 611Q222 709 389 710Q555 708 643 610Q731 513 731 351Q730 190 644 91Q556 -10 389 -12Q221 -10 135 90Q47 188 47 351ZM193 351Q192 253 238 178Q284 100 389 98Q443 98 481 120Q519 142 541 178Q585 253 585 351Q585 448 540 522Q493 598 389 600Q286 598 240 522Q193 448 193 351ZM556 880V764H440V880H556ZM234 764V880H350V764H234Z"  />
<glyph unicode="&#xD7;" horiz-adv-x="600" d="M66 415L138 487L300 325L462 487L534 415L371 253L534 91L462 19L300 182L138 19L66 91L228 253L66 415Z"  />
<glyph unicode="&#xD8;" horiz-adv-x="778" d="M509 556Q464 599 389 600Q286 598 240 522Q193 448 193 351Q193 264 228 194L509 556ZM264 146Q309 99 389 98Q443 98 481 120Q519 142 541 178Q585 253 585 351Q585 440 546 509L264 146ZM686 690L632 620Q730 521 731 351Q730 190 644 91Q556 -10 389 -12Q265 -11 185 45L128 -29L83 7L142 83Q47 180 47 351Q47 514 135 611Q222 709 389 710Q508 709 587 657L641 727L686 690Z"  />
<glyph unicode="&#xD9;" horiz-adv-x="722" d="M76 698H216V295Q215 205 249 153Q283 98 361 98Q441 98 474 153Q506 205 506 295V698H646V252Q642 -16 361 -12Q80 -16 76 252V698ZM450 740H367L230 886H367L450 740Z"  />
<glyph unicode="&#xDA;" horiz-adv-x="722" d="M76 698H216V295Q215 205 249 153Q283 98 361 98Q441 98 474 153Q506 205 506 295V698H646V252Q642 -16 361 -12Q80 -16 76 252V698ZM368 886H505L368 740H285L368 886Z"  />
<glyph unicode="&#xDB;" horiz-adv-x="722" d="M76 698H216V295Q215 205 249 153Q283 98 361 98Q441 98 474 153Q506 205 506 295V698H646V252Q642 -16 361 -12Q80 -16 76 252V698ZM418 886L523 740H434L366 826L296 740H207L317 886H418Z"  />
<glyph unicode="&#xDC;" horiz-adv-x="722" d="M76 698H216V295Q215 205 249 153Q283 98 361 98Q441 98 474 153Q506 205 506 295V698H646V252Q642 -16 361 -12Q80 -16 76 252V698ZM526 880V764H410V880H526ZM204 764V880H320V764H204Z"  />
<glyph unicode="&#xDD;" horiz-adv-x="667" d="M266 276L11 698H175L340 405L508 698H656L406 276V0H266V276ZM341 886H478L341 740H258L341 886Z"  />
<glyph unicode="&#xDE;" horiz-adv-x="556" d="M69 0V698H209V582H246Q364 583 449 539Q535 494 537 370Q536 250 460 199Q384 148 268 149H209V0H69ZM209 259H258Q313 258 352 281Q390 304 391 363Q391 394 381 415Q370 436 352 448Q314 472 258 472H209V259Z"  />
<glyph unicode="&#xDF;" horiz-adv-x="611" d="M72 0V505Q72 621 134 691Q195 761 318 762Q406 762 474 716Q543 670 545 578Q545 439 412 401V399Q489 389 535 338Q580 287 581 215Q580 112 516 54Q451 -5 347 -6Q293 -4 260 5L264 109Q289 98 334 98Q350 98 368 104Q385 109 402 122Q419 135 430 162Q441 187 441 229Q440 296 395 320Q349 343 284 342V446Q402 445 405 555Q405 598 384 628Q362 657 316 658Q258 657 232 613Q206 570 206 516V0H72Z"  />
<glyph unicode="&#xE0;" horiz-adv-x="556" d="M92 488Q178 526 271 527Q496 530 493 310V244Q493 169 495 115Q497 58 501 0H383Q377 47 377 77H375Q351 35 308 12Q264 -12 216 -12Q146 -11 93 28Q37 67 36 141Q36 199 62 235Q86 271 124 288Q164 307 209 313Q255 318 297 318H371Q371 380 343 405Q315 429 255 429Q167 428 96 373L92 488ZM164 149Q164 117 189 102Q212 86 249 86Q311 87 343 132Q372 177 371 238H313Q302 238 290 238Q278 238 266 236Q240 233 217 224Q194 215 180 197Q164 179 164 149ZM346 585H263L126 731H263L346 585Z"  />
<glyph unicode="&#xE1;" horiz-adv-x="556" d="M92 488Q178 526 271 527Q496 530 493 310V244Q493 169 495 115Q497 58 501 0H383Q377 47 377 77H375Q351 35 308 12Q264 -12 216 -12Q146 -11 93 28Q37 67 36 141Q36 199 62 235Q86 271 124 288Q164 307 209 313Q255 318 297 318H371Q371 380 343 405Q315 429 255 429Q167 428 96 373L92 488ZM164 149Q164 117 189 102Q212 86 249 86Q311 87 343 132Q372 177 371 238H313Q302 238 290 238Q278 238 266 236Q240 233 217 224Q194 215 180 197Q164 179 164 149ZM293 731H430L293 585H210L293 731Z"  />
<glyph unicode="&#xE2;" horiz-adv-x="556" d="M92 488Q178 526 271 527Q496 530 493 310V244Q493 169 495 115Q497 58 501 0H383Q377 47 377 77H375Q351 35 308 12Q264 -12 216 -12Q146 -11 93 28Q37 67 36 141Q36 199 62 235Q86 271 124 288Q164 307 209 313Q255 318 297 318H371Q371 380 343 405Q315 429 255 429Q167 428 96 373L92 488ZM164 149Q164 117 189 102Q212 86 249 86Q311 87 343 132Q372 177 371 238H313Q302 238 290 238Q278 238 266 236Q240 233 217 224Q194 215 180 197Q164 179 164 149ZM334 731L439 585H350L282 671L212 585H123L233 731H334Z"  />
<glyph unicode="&#xE3;" horiz-adv-x="556" d="M92 488Q178 526 271 527Q496 530 493 310V244Q493 169 495 115Q497 58 501 0H383Q377 47 377 77H375Q351 35 308 12Q264 -12 216 -12Q146 -11 93 28Q37 67 36 141Q36 199 62 235Q86 271 124 288Q164 307 209 313Q255 318 297 318H371Q371 380 343 405Q315 429 255 429Q167 428 96 373L92 488ZM164 149Q164 117 189 102Q212 86 249 86Q311 87 343 132Q372 177 371 238H313Q302 238 290 238Q278 238 266 236Q240 233 217 224Q194 215 180 197Q164 179 164 149ZM103 603Q104 650 133 687Q161 723 205 724Q228 724 247 718Q267 712 286 704Q305 696 323 690Q340 682 359 682Q403 684 403 731H457Q457 680 433 646Q407 611 360 610Q333 610 314 616Q293 621 274 628Q236 646 206 647Q181 646 169 633Q157 619 157 603H103Z"  />
<glyph unicode="&#xE4;" horiz-adv-x="556" d="M92 488Q178 526 271 527Q496 530 493 310V244Q493 169 495 115Q497 58 501 0H383Q377 47 377 77H375Q351 35 308 12Q264 -12 216 -12Q146 -11 93 28Q37 67 36 141Q36 199 62 235Q86 271 124 288Q164 307 209 313Q255 318 297 318H371Q371 380 343 405Q315 429 255 429Q167 428 96 373L92 488ZM164 149Q164 117 189 102Q212 86 249 86Q311 87 343 132Q372 177 371 238H313Q302 238 290 238Q278 238 266 236Q240 233 217 224Q194 215 180 197Q164 179 164 149ZM442 737V609H326V737H442ZM120 609V737H236V609H120Z"  />
<glyph unicode="&#xE5;" horiz-adv-x="556" d="M92 488Q178 526 271 527Q496 530 493 310V244Q493 169 495 115Q497 58 501 0H383Q377 47 377 77H375Q351 35 308 12Q264 -12 216 -12Q146 -11 93 28Q37 67 36 141Q36 199 62 235Q86 271 124 288Q164 307 209 313Q255 318 297 318H371Q371 380 343 405Q315 429 255 429Q167 428 96 373L92 488ZM164 149Q164 117 189 102Q212 86 249 86Q311 87 343 132Q372 177 371 238H313Q302 238 290 238Q278 238 266 236Q240 233 217 224Q194 215 180 197Q164 179 164 149ZM177 685Q178 730 210 761Q240 791 284 792Q330 791 360 761Q389 730 390 685Q389 641 360 611Q330 579 284 579Q240 579 210 611Q178 641 177 685ZM231 685Q231 663 247 649Q261 633 284 633Q307 633 322 649Q336 663 336 685Q336 708 322 724Q307 738 284 738Q261 738 247 724Q231 708 231 685Z"  />
<glyph unicode="&#xE6;" horiz-adv-x="889" d="M725 308Q725 357 701 393Q676 428 620 429Q561 428 531 394Q499 360 499 308H725ZM818 29Q747 -12 641 -12Q578 -12 521 9Q463 29 425 81Q411 57 390 41Q368 23 342 11Q290 -13 233 -12Q157 -12 98 23Q37 58 36 141Q36 195 60 230Q83 265 121 284Q159 304 205 311Q250 318 294 318H371Q371 374 346 402Q319 430 252 430Q164 428 93 373L89 488Q174 526 272 527Q327 527 369 516Q390 510 410 497Q429 483 447 462Q503 526 623 527Q758 524 808 432Q854 341 853 216H499Q500 153 543 120Q584 86 647 86Q696 86 739 102Q781 116 818 138V29ZM164 141Q164 118 184 103Q204 86 240 86Q374 86 371 238H313Q302 238 290 238Q278 237 265 235Q239 231 216 220Q193 210 179 191Q164 171 164 141Z"  />
<glyph unicode="&#xE7;" horiz-adv-x="444" d="M403 404Q386 413 365 418Q343 423 312 423Q250 422 214 379Q176 335 176 260Q176 188 211 141Q245 93 315 92Q344 92 373 101Q401 108 418 116L424 5Q377 -10 313 -11L276 -53L278 -55Q296 -49 319 -49Q350 -49 374 -65Q398 -82 399 -118Q398 -174 359 -198Q321 -222 274 -222Q233 -221 205 -215Q177 -210 158 -201L178 -147Q193 -151 211 -156Q227 -161 248 -162Q268 -162 284 -154Q300 -146 301 -127Q301 -108 288 -99Q276 -90 257 -91Q233 -91 215 -100L200 -74L252 -9Q144 5 90 78Q36 150 36 260Q36 375 101 450Q165 526 285 527Q363 527 415 510L403 404Z"  />
<glyph unicode="&#xE8;" horiz-adv-x="556" d="M392 308Q390 359 365 393Q339 428 283 429Q228 428 198 395Q168 361 164 308H392ZM482 29Q411 -12 305 -12Q39 -8 36 255Q36 370 96 448Q156 525 275 527Q416 526 470 440Q521 354 520 216H164Q169 154 209 121Q249 86 311 86Q360 86 403 102Q445 116 482 138V29ZM346 585H263L126 731H263L346 585Z"  />
<glyph unicode="&#xE9;" horiz-adv-x="556" d="M392 308Q390 359 365 393Q339 428 283 429Q228 428 198 395Q168 361 164 308H392ZM482 29Q411 -12 305 -12Q39 -8 36 255Q36 370 96 448Q156 525 275 527Q416 526 470 440Q521 354 520 216H164Q169 154 209 121Q249 86 311 86Q360 86 403 102Q445 116 482 138V29ZM293 731H430L293 585H210L293 731Z"  />
<glyph unicode="&#xEA;" horiz-adv-x="556" d="M392 308Q390 359 365 393Q339 428 283 429Q228 428 198 395Q168 361 164 308H392ZM482 29Q411 -12 305 -12Q39 -8 36 255Q36 370 96 448Q156 525 275 527Q416 526 470 440Q521 354 520 216H164Q169 154 209 121Q249 86 311 86Q360 86 403 102Q445 116 482 138V29ZM334 731L439 585H350L282 671L212 585H123L233 731H334Z"  />
<glyph unicode="&#xEB;" horiz-adv-x="556" d="M392 308Q390 359 365 393Q339 428 283 429Q228 428 198 395Q168 361 164 308H392ZM482 29Q411 -12 305 -12Q39 -8 36 255Q36 370 96 448Q156 525 275 527Q416 526 470 440Q521 354 520 216H164Q169 154 209 121Q249 86 311 86Q360 86 403 102Q445 116 482 138V29ZM442 737V609H326V737H442ZM120 609V737H236V609H120Z"  />
<glyph unicode="&#xEC;" horiz-adv-x="278" d="M72 0V515H206V0H72ZM205 585H122L-15 731H122L205 585Z"  />
<glyph unicode="&#xED;" horiz-adv-x="278" d="M72 0V515H206V0H72ZM148 731H285L148 585H65L148 731Z"  />
<glyph unicode="&#xEE;" horiz-adv-x="278" d="M72 0V515H206V0H72ZM192 731L297 585H208L140 671L70 585H-19L91 731H192Z"  />
<glyph unicode="&#xEF;" horiz-adv-x="278" d="M72 0V515H206V0H72ZM300 737V609H184V737H300ZM-22 609V737H94V609H-22Z"  />
<glyph unicode="&#xF0;" horiz-adv-x="611" d="M307 411Q241 409 209 359Q176 310 176 251Q176 224 184 196Q191 168 206 145Q221 122 246 108Q270 92 306 92Q375 93 404 142Q432 188 432 251Q432 307 403 358Q389 382 365 397Q341 411 307 411ZM228 648Q174 681 129 696L190 764Q257 740 317 705L409 764L460 717L377 664Q567 528 572 282Q569 -9 305 -12Q177 -10 107 66Q36 141 36 254Q35 361 96 437Q157 513 269 515Q312 515 341 507Q370 498 392 483H394Q358 555 288 607L196 547L145 594L228 648Z"  />
<glyph unicode="&#xF1;" horiz-adv-x="611" d="M69 515H196V445H198Q262 528 367 527Q458 526 501 470Q542 414 542 325V0H408V275Q408 300 407 326Q406 352 397 373Q390 396 372 410Q353 423 321 423Q285 423 263 406Q241 389 227 363Q214 337 209 308Q203 278 203 252V0H69V515ZM131 603Q132 650 161 687Q189 723 233 724Q256 724 275 718Q295 712 314 704Q333 696 351 690Q368 682 387 682Q431 684 431 731H485Q485 680 461 646Q435 611 388 610Q361 610 342 616Q321 621 302 628Q264 646 234 647Q209 646 197 633Q185 619 185 603H131Z"  />
<glyph unicode="&#xF2;" horiz-adv-x="611" d="M36 254Q37 383 114 455Q189 526 305 527Q423 526 498 455Q574 383 575 254Q575 141 505 66Q435 -10 305 -12Q177 -10 107 66Q36 141 36 254ZM176 270Q176 255 178 240Q180 223 183 208Q189 176 203 150Q218 124 243 109Q267 92 305 92Q344 92 370 108Q395 123 410 149Q425 175 430 207Q435 238 435 270Q435 332 404 377Q371 422 305 423Q241 422 209 376Q176 331 176 270ZM375 585H292L155 731H292L375 585Z"  />
<glyph unicode="&#xF3;" horiz-adv-x="611" d="M36 254Q37 383 114 455Q189 526 305 527Q423 526 498 455Q574 383 575 254Q575 141 505 66Q435 -10 305 -12Q177 -10 107 66Q36 141 36 254ZM176 270Q176 255 178 240Q180 223 183 208Q189 176 203 150Q218 124 243 109Q267 92 305 92Q344 92 370 108Q395 123 410 149Q425 175 430 207Q435 238 435 270Q435 332 404 377Q371 422 305 423Q241 422 209 376Q176 331 176 270ZM321 731H458L321 585H238L321 731Z"  />
<glyph unicode="&#xF4;" horiz-adv-x="611" d="M36 254Q37 383 114 455Q189 526 305 527Q423 526 498 455Q574 383 575 254Q575 141 505 66Q435 -10 305 -12Q177 -10 107 66Q36 141 36 254ZM176 270Q176 255 178 240Q180 223 183 208Q189 176 203 150Q218 124 243 109Q267 92 305 92Q344 92 370 108Q395 123 410 149Q425 175 430 207Q435 238 435 270Q435 332 404 377Q371 422 305 423Q241 422 209 376Q176 331 176 270ZM362 731L467 585H378L310 671L240 585H151L261 731H362Z"  />
<glyph unicode="&#xF5;" horiz-adv-x="611" d="M36 254Q37 383 114 455Q189 526 305 527Q423 526 498 455Q574 383 575 254Q575 141 505 66Q435 -10 305 -12Q177 -10 107 66Q36 141 36 254ZM176 270Q176 255 178 240Q180 223 183 208Q189 176 203 150Q218 124 243 109Q267 92 305 92Q344 92 370 108Q395 123 410 149Q425 175 430 207Q435 238 435 270Q435 332 404 377Q371 422 305 423Q241 422 209 376Q176 331 176 270ZM131 603Q132 650 161 687Q189 723 233 724Q256 724 275 718Q295 712 314 704Q333 696 351 690Q368 682 387 682Q431 684 431 731H485Q485 680 461 646Q435 611 388 610Q361 610 342 616Q321 621 302 628Q264 646 234 647Q209 646 197 633Q185 619 185 603H131Z"  />
<glyph unicode="&#xF6;" horiz-adv-x="611" d="M36 254Q37 383 114 455Q189 526 305 527Q423 526 498 455Q574 383 575 254Q575 141 505 66Q435 -10 305 -12Q177 -10 107 66Q36 141 36 254ZM176 270Q176 255 178 240Q180 223 183 208Q189 176 203 150Q218 124 243 109Q267 92 305 92Q344 92 370 108Q395 123 410 149Q425 175 430 207Q435 238 435 270Q435 332 404 377Q371 422 305 423Q241 422 209 376Q176 331 176 270ZM470 737V609H354V737H470ZM148 609V737H264V609H148Z"  />
<glyph unicode="&#xF7;" horiz-adv-x="600" d="M46 201V305H554V201H46ZM300 529Q335 528 357 508Q377 487 377 452Q377 419 357 397Q335 375 300 375Q265 375 245 397Q223 419 223 452Q223 487 245 508Q265 528 300 529ZM300 -23Q265 -22 245 -1Q223 21 223 54Q223 89 245 110Q265 130 300 131Q335 130 357 110Q377 89 377 54Q377 21 357 -1Q335 -22 300 -23Z"  />
<glyph unicode="&#xF8;" horiz-adv-x="611" d="M384 396Q355 422 305 423Q241 422 209 376Q176 331 176 270Q175 215 194 168L384 396ZM224 122Q253 92 305 92Q344 92 370 108Q395 123 410 149Q425 175 430 207Q435 238 435 270Q435 316 417 354L224 122ZM553 517L499 452Q574 381 575 254Q575 141 505 66Q435 -10 305 -12Q212 -11 148 31L93 -35L52 -2L108 65Q36 139 36 254Q37 383 114 455Q189 526 305 527Q394 526 459 485L513 550L553 517Z"  />
<glyph unicode="&#xF9;" horiz-adv-x="611" d="M542 0H415V70H413Q350 -10 244 -12Q153 -11 112 46Q69 102 69 190V515H203V240Q203 229 205 217Q205 205 206 192Q208 166 215 143Q224 121 241 107Q259 92 290 92Q327 92 351 111Q374 128 386 154Q400 180 404 209Q408 238 408 263V515H542V0ZM374 585H291L154 731H291L374 585Z"  />
<glyph unicode="&#xFA;" horiz-adv-x="611" d="M542 0H415V70H413Q350 -10 244 -12Q153 -11 112 46Q69 102 69 190V515H203V240Q203 229 205 217Q205 205 206 192Q208 166 215 143Q224 121 241 107Q259 92 290 92Q327 92 351 111Q374 128 386 154Q400 180 404 209Q408 238 408 263V515H542V0ZM320 731H457L320 585H237L320 731Z"  />
<glyph unicode="&#xFB;" horiz-adv-x="611" d="M542 0H415V70H413Q350 -10 244 -12Q153 -11 112 46Q69 102 69 190V515H203V240Q203 229 205 217Q205 205 206 192Q208 166 215 143Q224 121 241 107Q259 92 290 92Q327 92 351 111Q374 128 386 154Q400 180 404 209Q408 238 408 263V515H542V0ZM361 731L466 585H377L309 671L239 585H150L260 731H361Z"  />
<glyph unicode="&#xFC;" horiz-adv-x="611" d="M542 0H415V70H413Q350 -10 244 -12Q153 -11 112 46Q69 102 69 190V515H203V240Q203 229 205 217Q205 205 206 192Q208 166 215 143Q224 121 241 107Q259 92 290 92Q327 92 351 111Q374 128 386 154Q400 180 404 209Q408 238 408 263V515H542V0ZM469 737V609H353V737H469ZM147 609V737H263V609H147Z"  />
<glyph unicode="&#xFD;" horiz-adv-x="556" d="M283 139H285L409 515H545L352 4Q337 -38 321 -78Q305 -119 282 -151Q260 -183 226 -202Q190 -222 138 -222Q90 -222 43 -208L52 -109Q75 -118 121 -118Q162 -117 185 -92Q208 -67 208 -26L11 515H159L283 139ZM293 731H430L293 585H210L293 731Z"  />
<glyph unicode="&#xFE;" horiz-adv-x="611" d="M69 750H203V448H205Q224 481 263 504Q301 526 359 527Q476 525 527 447Q576 369 575 259Q576 150 527 71Q476 -10 359 -12Q303 -11 266 9Q229 28 205 58H203V-210H69V750ZM324 423Q260 421 232 368Q204 317 204 259Q203 201 231 149Q245 125 267 109Q289 92 322 92Q355 92 378 109Q400 125 412 149Q425 175 431 204Q435 233 435 259Q435 315 413 368Q401 393 379 408Q357 423 324 423Z"  />
<glyph unicode="&#xFF;" horiz-adv-x="556" d="M283 139H285L409 515H545L352 4Q337 -38 321 -78Q305 -119 282 -151Q260 -183 226 -202Q190 -222 138 -222Q90 -222 43 -208L52 -109Q75 -118 121 -118Q162 -117 185 -92Q208 -67 208 -26L11 515H159L283 139ZM443 737V609H327V737H443ZM121 609V737H237V609H121Z"  />
<glyph unicode="&#x100;" horiz-adv-x="722" d="M358 558H356L255 270H459L358 558ZM281 698H439L713 0H558L498 160H215L154 0H9L281 698ZM218 773V853H506V773H218Z"  />
<glyph unicode="&#x101;" horiz-adv-x="556" d="M92 488Q178 526 271 527Q496 530 493 310V244Q493 169 495 115Q497 58 501 0H383Q377 47 377 77H375Q351 35 308 12Q264 -12 216 -12Q146 -11 93 28Q37 67 36 141Q36 199 62 235Q86 271 124 288Q164 307 209 313Q255 318 297 318H371Q371 380 343 405Q315 429 255 429Q167 428 96 373L92 488ZM164 149Q164 117 189 102Q212 86 249 86Q311 87 343 132Q372 177 371 238H313Q302 238 290 238Q278 238 266 236Q240 233 217 224Q194 215 180 197Q164 179 164 149ZM137 618V698H425V618H137Z"  />
<glyph unicode="&#x102;" horiz-adv-x="722" d="M358 558H356L255 270H459L358 558ZM281 698H439L713 0H558L498 160H215L154 0H9L281 698ZM261 886Q280 807 361 806Q443 807 463 886H525Q520 817 475 777Q430 734 361 734Q294 734 249 777Q204 817 199 886H261Z"  />
<glyph unicode="&#x103;" horiz-adv-x="556" d="M92 488Q178 526 271 527Q496 530 493 310V244Q493 169 495 115Q497 58 501 0H383Q377 47 377 77H375Q351 35 308 12Q264 -12 216 -12Q146 -11 93 28Q37 67 36 141Q36 199 62 235Q86 271 124 288Q164 307 209 313Q255 318 297 318H371Q371 380 343 405Q315 429 255 429Q167 428 96 373L92 488ZM164 149Q164 117 189 102Q212 86 249 86Q311 87 343 132Q372 177 371 238H313Q302 238 290 238Q278 238 266 236Q240 233 217 224Q194 215 180 197Q164 179 164 149ZM177 730Q196 651 277 650Q359 651 379 730H441Q436 661 391 621Q346 578 277 578Q210 578 165 621Q120 661 115 730H177Z"  />
<glyph unicode="&#x104;" horiz-adv-x="722" d="M625 0Q595 -22 569 -52Q543 -83 542 -122Q541 -167 583 -168Q600 -167 615 -157Q630 -147 639 -135L679 -143Q662 -182 633 -202Q604 -222 554 -222Q510 -222 484 -199Q456 -177 456 -132Q456 -108 469 -87Q480 -67 498 -51Q537 -19 576 0H558L498 160H215L154 0H9L281 698H439L713 0H625ZM358 558H356L255 270H459L358 558Z"  />
<glyph unicode="&#x105;" horiz-adv-x="556" d="M461 0Q431 -22 405 -52Q379 -83 378 -122Q377 -167 419 -168Q436 -167 451 -157Q466 -147 475 -135L515 -143Q498 -182 469 -202Q440 -222 390 -222Q346 -222 320 -199Q292 -177 292 -132Q292 -108 305 -87Q316 -67 334 -51Q373 -19 412 0H383Q377 47 377 77H375Q351 35 308 12Q264 -12 216 -12Q146 -11 93 28Q37 67 36 141Q36 199 62 235Q86 271 124 288Q164 307 209 313Q255 318 297 318H371Q371 380 343 405Q315 429 255 429Q167 428 96 373L92 488Q178 526 271 527Q496 530 493 310V244Q493 169 495 115Q497 58 501 0H461ZM164 149Q164 117 189 102Q212 86 249 86Q311 87 343 132Q372 177 371 238H290Q278 238 266 236Q240 233 217 224Q194 215 180 197Q164 179 164 149Z"  />
<glyph unicode="&#x106;" horiz-adv-x="611" d="M589 10Q511 -11 430 -12Q258 -12 155 75Q48 160 47 337Q54 706 430 710Q505 710 588 681L578 563Q539 585 502 594Q465 600 427 600Q318 599 257 528Q193 457 193 347Q193 238 256 170Q318 99 430 98Q473 98 516 107Q558 115 583 127L589 10ZM411 886H548L411 740H328L411 886Z"  />
<glyph unicode="&#x107;" horiz-adv-x="444" d="M403 404Q386 413 365 418Q343 423 312 423Q250 422 214 379Q176 335 176 260Q176 188 211 141Q245 93 315 92Q344 92 373 101Q401 108 418 116L424 5Q396 -4 364 -7Q332 -12 290 -12Q164 -11 101 66Q36 141 36 260Q36 375 101 450Q165 526 285 527Q363 527 415 510L403 404ZM298 731H435L298 585H215L298 731Z"  />
<glyph unicode="&#x108;" horiz-adv-x="611" d="M589 10Q511 -11 430 -12Q258 -12 155 75Q48 160 47 337Q54 706 430 710Q505 710 588 681L578 563Q539 585 502 594Q465 600 427 600Q318 599 257 528Q193 457 193 347Q193 238 256 170Q318 99 430 98Q473 98 516 107Q558 115 583 127L589 10ZM443 886L548 740H459L391 826L321 740H232L342 886H443Z"  />
<glyph unicode="&#x109;" horiz-adv-x="444" d="M403 404Q386 413 365 418Q343 423 312 423Q250 422 214 379Q176 335 176 260Q176 188 211 141Q245 93 315 92Q344 92 373 101Q401 108 418 116L424 5Q396 -4 364 -7Q332 -12 290 -12Q164 -11 101 66Q36 141 36 260Q36 375 101 450Q165 526 285 527Q363 527 415 510L403 404ZM323 731L428 585H339L271 671L201 585H112L222 731H323Z"  />
<glyph unicode="&#x10A;" horiz-adv-x="611" d="M589 10Q511 -11 430 -12Q258 -12 155 75Q48 160 47 337Q54 706 430 710Q505 710 588 681L578 563Q539 585 502 594Q465 600 427 600Q318 599 257 528Q193 457 193 347Q193 238 256 170Q318 99 430 98Q473 98 516 107Q558 115 583 127L589 10ZM331 764V880H447V764H331Z"  />
<glyph unicode="&#x10B;" horiz-adv-x="444" d="M403 404Q386 413 365 418Q343 423 312 423Q250 422 214 379Q176 335 176 260Q176 188 211 141Q245 93 315 92Q344 92 373 101Q401 108 418 116L424 5Q396 -4 364 -7Q332 -12 290 -12Q164 -11 101 66Q36 141 36 260Q36 375 101 450Q165 526 285 527Q363 527 415 510L403 404ZM220 609V737H336V609H220Z"  />
<glyph unicode="&#x10C;" horiz-adv-x="611" d="M589 10Q511 -11 430 -12Q258 -12 155 75Q48 160 47 337Q54 706 430 710Q505 710 588 681L578 563Q539 585 502 594Q465 600 427 600Q318 599 257 528Q193 457 193 347Q193 238 256 170Q318 99 430 98Q473 98 516 107Q558 115 583 127L589 10ZM342 740L232 886H321L391 800L459 886H548L443 740H342Z"  />
<glyph unicode="&#x10D;" horiz-adv-x="444" d="M403 404Q386 413 365 418Q343 423 312 423Q250 422 214 379Q176 335 176 260Q176 188 211 141Q245 93 315 92Q344 92 373 101Q401 108 418 116L424 5Q396 -4 364 -7Q332 -12 290 -12Q164 -11 101 66Q36 141 36 260Q36 375 101 450Q165 526 285 527Q363 527 415 510L403 404ZM228 585L118 731H207L277 645L345 731H434L329 585H228Z"  />
<glyph unicode="&#x10E;" horiz-adv-x="722" d="M81 698H272Q438 700 554 628Q611 589 643 522Q675 454 675 349Q675 246 643 179Q611 111 554 71Q498 32 426 16Q354 0 272 0H81V698ZM221 110H299Q391 110 459 173Q527 235 529 349Q527 464 459 526Q391 588 299 588H221V110ZM276 740L166 886H255L325 800L393 886H482L377 740H276Z"  />
<glyph unicode="&#x10F;" horiz-adv-x="688" d="M176 259Q175 203 200 149Q213 125 235 109Q256 92 289 92Q324 92 346 109Q369 125 382 149Q396 174 402 203Q407 232 407 259Q407 317 380 368Q365 393 343 408Q320 423 287 423Q224 421 199 368Q187 344 182 315Q176 286 176 259ZM412 58H410Q348 -13 252 -12Q135 -10 85 71Q35 150 36 259Q35 369 85 447Q135 525 252 527Q349 527 406 455H408V750H542V0H412V58ZM612 731H727L670 532H596L612 731Z"  />
<glyph unicode="&#x110;" horiz-adv-x="722" d="M81 336H17V422H81V698H272Q438 700 554 628Q611 589 643 522Q675 454 675 349Q675 246 643 179Q611 111 554 71Q498 32 426 16Q354 0 272 0H81V336ZM221 110H299Q391 110 459 173Q527 235 529 349Q527 464 459 526Q391 588 299 588H221V422H367V336H221V110Z"  />
<glyph unicode="&#x111;" horiz-adv-x="611" d="M412 58H410Q348 -13 252 -12Q135 -10 85 71Q35 150 36 259Q35 369 85 447Q135 525 252 527Q349 527 406 455H408V596H241V669H408V750H542V669H628V596H542V0H412V58ZM176 259Q175 203 200 149Q213 125 235 109Q256 92 289 92Q324 92 346 109Q369 125 382 149Q396 174 402 203Q407 232 407 259Q407 317 380 368Q365 393 343 408Q320 423 287 423Q224 421 199 368Q187 344 182 315Q176 286 176 259Z"  />
<glyph unicode="&#x112;" horiz-adv-x="556" d="M81 698H493V588H221V416H470V306H221V110H495V0H81V698ZM145 773V853H433V773H145Z"  />
<glyph unicode="&#x113;" horiz-adv-x="556" d="M392 308Q390 359 365 393Q339 428 283 429Q228 428 198 395Q168 361 164 308H392ZM482 29Q411 -12 305 -12Q39 -8 36 255Q36 370 96 448Q156 525 275 527Q416 526 470 440Q521 354 520 216H164Q169 154 209 121Q249 86 311 86Q360 86 403 102Q445 116 482 138V29ZM142 618V698H430V618H142Z"  />
<glyph unicode="&#x114;" horiz-adv-x="556" d="M81 698H493V588H221V416H470V306H221V110H495V0H81V698ZM188 886Q207 807 288 806Q370 807 390 886H452Q447 817 402 777Q357 734 288 734Q221 734 176 777Q131 817 126 886H188Z"  />
<glyph unicode="&#x115;" horiz-adv-x="556" d="M392 308Q390 359 365 393Q339 428 283 429Q228 428 198 395Q168 361 164 308H392ZM482 29Q411 -12 305 -12Q39 -8 36 255Q36 370 96 448Q156 525 275 527Q416 526 470 440Q521 354 520 216H164Q169 154 209 121Q249 86 311 86Q360 86 403 102Q445 116 482 138V29ZM186 730Q205 651 286 650Q368 651 388 730H450Q445 661 400 621Q355 578 286 578Q219 578 174 621Q129 661 124 730H186Z"  />
<glyph unicode="&#x116;" horiz-adv-x="556" d="M81 698H493V588H221V416H470V306H221V110H495V0H81V698ZM237 764V880H353V764H237Z"  />
<glyph unicode="&#x117;" horiz-adv-x="556" d="M392 308Q390 359 365 393Q339 428 283 429Q228 428 198 395Q168 361 164 308H392ZM482 29Q411 -12 305 -12Q39 -8 36 255Q36 370 96 448Q156 525 275 527Q416 526 470 440Q521 354 520 216H164Q169 154 209 121Q249 86 311 86Q360 86 403 102Q445 116 482 138V29ZM232 609V737H348V609H232Z"  />
<glyph unicode="&#x118;" horiz-adv-x="556" d="M443 0Q413 -22 387 -52Q361 -83 360 -122Q359 -167 401 -168Q418 -167 433 -157Q448 -147 457 -135L497 -143Q480 -182 451 -202Q422 -222 372 -222Q328 -222 302 -199Q274 -177 274 -132Q274 -108 287 -87Q298 -67 316 -51Q355 -19 394 0H81V698H493V588H221V416H470V306H221V110H495V0H443Z"  />
<glyph unicode="&#x119;" horiz-adv-x="556" d="M482 29Q420 -6 333 -11Q311 -29 292 -52Q266 -83 265 -122Q264 -167 306 -168Q323 -167 338 -157Q353 -147 362 -135L402 -143Q385 -182 356 -202Q327 -222 277 -222Q233 -222 207 -199Q179 -177 179 -132Q179 -108 192 -87Q203 -67 221 -51Q249 -27 278 -11Q39 5 36 255Q36 370 96 448Q156 525 275 527Q416 526 470 440Q521 354 520 216H164Q169 154 209 121Q249 86 311 86Q360 86 403 102Q445 116 482 138V29ZM392 308Q390 359 365 393Q339 428 283 429Q228 428 198 395Q168 361 164 308H392Z"  />
<glyph unicode="&#x11A;" horiz-adv-x="556" d="M81 698H493V588H221V416H470V306H221V110H495V0H81V698ZM240 740L130 886H219L289 800L357 886H446L341 740H240Z"  />
<glyph unicode="&#x11B;" horiz-adv-x="556" d="M392 308Q390 359 365 393Q339 428 283 429Q228 428 198 395Q168 361 164 308H392ZM482 29Q411 -12 305 -12Q39 -8 36 255Q36 370 96 448Q156 525 275 527Q416 526 470 440Q521 354 520 216H164Q169 154 209 121Q249 86 311 86Q360 86 403 102Q445 116 482 138V29ZM236 585L126 731H215L285 645L353 731H442L337 585H236Z"  />
<glyph unicode="&#x11C;" horiz-adv-x="722" d="M626 563Q538 600 446 600Q324 599 259 528Q193 457 193 347Q193 238 256 170Q318 99 430 98Q487 98 522 108V290H374V400H656V24Q544 -10 430 -12Q258 -12 155 75Q48 160 47 337Q54 706 430 710Q548 709 635 681L626 563H626ZM460 886L565 740H476L408 826L338 740H249L359 886H460Z"  />
<glyph unicode="&#x11D;" horiz-adv-x="611" d="M290 104Q353 105 381 152Q408 197 408 263Q408 331 382 376Q354 422 296 423Q229 421 203 372Q175 323 176 260Q176 204 205 156Q220 133 241 119Q262 104 290 104ZM542 515V50Q542 25 540 -1Q537 -27 531 -51Q518 -100 487 -138Q458 -176 404 -198Q351 -221 270 -222Q189 -223 92 -187L103 -73Q136 -90 178 -103Q220 -117 253 -118Q308 -117 341 -99Q372 -80 387 -51Q402 -21 406 14Q408 49 408 82H406Q387 48 346 25Q304 0 246 0Q133 2 85 79Q35 153 36 260Q35 358 88 441Q140 524 254 527Q356 528 412 445H414V515H542ZM359 731L464 585H375L307 671L237 585H148L258 731H359Z"  />
<glyph unicode="&#x11E;" horiz-adv-x="722" d="M626 563Q538 600 446 600Q324 599 259 528Q193 457 193 347Q193 238 256 170Q318 99 430 98Q487 98 522 108V290H374V400H656V24Q544 -10 430 -12Q258 -12 155 75Q48 160 47 337Q54 706 430 710Q548 709 635 681L626 563H626ZM308 886Q327 807 408 806Q490 807 510 886H572Q567 817 522 777Q477 734 408 734Q341 734 296 777Q251 817 246 886H308Z"  />
<glyph unicode="&#x11F;" horiz-adv-x="611" d="M290 104Q353 105 381 152Q408 197 408 263Q408 331 382 376Q354 422 296 423Q229 421 203 372Q175 323 176 260Q176 204 205 156Q220 133 241 119Q262 104 290 104ZM542 515V50Q542 25 540 -1Q537 -27 531 -51Q518 -100 487 -138Q458 -176 404 -198Q351 -221 270 -222Q189 -223 92 -187L103 -73Q136 -90 178 -103Q220 -117 253 -118Q308 -117 341 -99Q372 -80 387 -51Q402 -21 406 14Q408 49 408 82H406Q387 48 346 25Q304 0 246 0Q133 2 85 79Q35 153 36 260Q35 358 88 441Q140 524 254 527Q356 528 412 445H414V515H542ZM207 730Q226 651 307 650Q389 651 409 730H471Q466 661 421 621Q376 578 307 578Q240 578 195 621Q150 661 145 730H207Z"  />
<glyph unicode="&#x120;" horiz-adv-x="722" d="M626 563Q538 600 446 600Q324 599 259 528Q193 457 193 347Q193 238 256 170Q318 99 430 98Q487 98 522 108V290H374V400H656V24Q544 -10 430 -12Q258 -12 155 75Q48 160 47 337Q54 706 430 710Q548 709 635 681L626 563H626ZM351 764V880H467V764H351Z"  />
<glyph unicode="&#x121;" horiz-adv-x="611" d="M290 104Q353 105 381 152Q408 197 408 263Q408 331 382 376Q354 422 296 423Q229 421 203 372Q175 323 176 260Q176 204 205 156Q220 133 241 119Q262 104 290 104ZM542 515V50Q542 25 540 -1Q537 -27 531 -51Q518 -100 487 -138Q458 -176 404 -198Q351 -221 270 -222Q189 -223 92 -187L103 -73Q136 -90 178 -103Q220 -117 253 -118Q308 -117 341 -99Q372 -80 387 -51Q402 -21 406 14Q408 49 408 82H406Q387 48 346 25Q304 0 246 0Q133 2 85 79Q35 153 36 260Q35 358 88 441Q140 524 254 527Q356 528 412 445H414V515H542ZM253 609V737H369V609H253Z"  />
<glyph unicode="&#x122;" horiz-adv-x="722" d="M626 563Q538 600 446 600Q324 599 259 528Q193 457 193 347Q193 238 256 170Q318 99 430 98Q487 98 522 108V290H374V400H656V24Q544 -10 430 -12Q258 -12 155 75Q48 160 47 337Q54 706 430 710Q548 709 635 681L626 563H626ZM429 -222H329L366 -66H493L429 -222Z"  />
<glyph unicode="&#x123;" horiz-adv-x="611" d="M290 104Q353 105 381 152Q408 197 408 263Q408 331 382 376Q354 422 296 423Q229 421 203 372Q175 323 176 260Q176 204 205 156Q220 133 241 119Q262 104 290 104ZM542 515V50Q542 25 540 -1Q537 -27 531 -51Q518 -100 487 -138Q458 -176 404 -198Q351 -221 270 -222Q189 -223 92 -187L103 -73Q136 -90 178 -103Q220 -117 253 -118Q308 -117 341 -99Q372 -80 387 -51Q402 -21 406 14Q408 49 408 82H406Q387 48 346 25Q304 0 246 0Q133 2 85 79Q35 153 36 260Q35 358 88 441Q140 524 254 527Q356 528 412 445H414V515H542ZM298 731H395L359 585H237L298 731Z"  />
<glyph unicode="&#x124;" horiz-adv-x="722" d="M81 698H221V416H501V698H641V0H501V306H221V0H81V698ZM415 886L520 740H431L363 826L293 740H204L314 886H415Z"  />
<glyph unicode="&#x125;" horiz-adv-x="611" d="M69 750H203V445H205Q259 525 367 527Q458 526 501 470Q542 414 542 325V0H408V275Q408 300 407 326Q406 352 397 373Q390 396 372 410Q353 423 321 423Q285 423 263 406Q241 389 227 363Q214 337 209 308Q203 278 203 252V0H69V750ZM359 926L464 780H375L307 866L237 780H148L258 926H359Z"  />
<glyph unicode="&#x126;" horiz-adv-x="722" d="M221 575H501V698H641V0H501V276H221V0H81V698H221V575ZM221 493V377H501V493H221Z"  />
<glyph unicode="&#x127;" horiz-adv-x="611" d="M69 750H203V669H370V596H203V445H205Q259 525 367 527Q458 526 501 470Q542 414 542 325V0H408V275Q408 300 407 326Q406 352 397 373Q390 396 372 410Q353 423 321 423Q285 423 263 406Q241 389 227 363Q214 337 209 308Q203 278 203 252V0H69V596H-17V669H69V750Z"  />
<glyph unicode="&#x128;" horiz-adv-x="278" d="M69 698H209V0H69V698ZM-38 758Q-37 805 -8 842Q20 878 64 879Q87 879 106 873Q126 867 145 859Q164 851 182 845Q199 837 218 837Q262 839 262 886H316Q316 835 292 801Q266 766 219 765Q192 765 173 771Q152 776 133 783Q95 801 65 802Q40 801 28 788Q16 774 16 758H-38Z"  />
<glyph unicode="&#x129;" horiz-adv-x="278" d="M72 0V515H206V0H72ZM-36 603Q-35 650 -6 687Q22 723 66 724Q89 724 108 718Q128 712 147 704Q166 696 184 690Q201 682 220 682Q264 684 264 731H318Q318 680 294 646Q268 611 221 610Q194 610 175 616Q154 621 135 628Q97 646 67 647Q42 646 30 633Q18 619 18 603H-36Z"  />
<glyph unicode="&#x12A;" horiz-adv-x="278" d="M69 698H209V0H69V698ZM-6 773V853H282V773H-6Z"  />
<glyph unicode="&#x12B;" horiz-adv-x="278" d="M72 0V515H206V0H72ZM-5 618V698H283V618H-5Z"  />
<glyph unicode="&#x12E;" horiz-adv-x="278" d="M204 0Q174 -22 148 -52Q122 -83 121 -122Q120 -167 162 -168Q179 -167 194 -157Q209 -147 218 -135L258 -143Q241 -182 212 -202Q183 -222 133 -222Q89 -222 63 -199Q35 -177 35 -132Q35 -108 48 -87Q59 -67 77 -51Q116 -19 155 0H69V698H209V0H204Z"  />
<glyph unicode="&#x12F;" horiz-adv-x="278" d="M204 0Q174 -22 148 -52Q122 -83 121 -122Q120 -167 162 -168Q179 -167 194 -157Q209 -147 218 -135L258 -143Q241 -182 212 -202Q183 -222 133 -222Q89 -222 63 -199Q35 -177 35 -132Q35 -108 48 -87Q59 -67 77 -51Q116 -19 155 0H72V515H206V0H204ZM72 737H206V609H72V737Z"  />
<glyph unicode="&#x130;" horiz-adv-x="278" d="M69 698H209V0H69V698ZM80 764V880H196V764H80Z"  />
<glyph unicode="&#x131;" horiz-adv-x="278" d="M72 0V515H206V0H72Z"  />
<glyph unicode="&#x132;" horiz-adv-x="641" d="M69 698H209V0H69V698ZM274 122Q301 110 341 110Q376 110 395 123Q414 136 421 154Q433 193 432 233V698H572V166Q572 139 563 108Q553 78 531 50Q509 23 472 6Q435 -11 381 -12Q328 -12 274 1V122Z"  />
<glyph unicode="&#x133;" horiz-adv-x="538" d="M72 515H206V0H72V515ZM72 737H206V609H72V737ZM250 -118Q303 -116 319 -97Q333 -78 332 -20V515H466V-38Q466 -65 461 -96Q455 -128 439 -157Q423 -184 393 -203Q362 -221 311 -222Q274 -222 245 -214L250 -118ZM332 737H466V609H332V737Z"  />
<glyph unicode="&#x134;" horiz-adv-x="389" d="M22 122Q49 110 89 110Q124 110 143 123Q162 136 169 154Q181 193 180 233V698H320V166Q320 139 311 108Q301 78 279 50Q257 23 220 6Q183 -11 129 -12Q76 -12 22 1V122ZM297 886L402 740H313L245 826L175 740H86L196 886H297Z"  />
<glyph unicode="&#x135;" horiz-adv-x="278" d="M-10 -118Q43 -116 59 -97Q73 -78 72 -20V515H206V-38Q206 -65 201 -96Q195 -128 179 -157Q163 -184 133 -203Q102 -221 51 -222Q14 -222 -15 -214L-10 -118ZM189 731L294 585H205L137 671L67 585H-22L88 731H189Z"  />
<glyph unicode="&#x136;" horiz-adv-x="667" d="M81 698H221V398L473 698H645L358 369L657 0H474L223 324H221V0H81V698ZM358 -222H258L295 -66H422L358 -222Z"  />
<glyph unicode="&#x137;" horiz-adv-x="556" d="M72 750H206V309H208L368 515H526L334 285L550 0H380L208 250H206V0H72V750ZM301 -222H201L238 -66H365L301 -222Z"  />
<glyph unicode="&#x139;" horiz-adv-x="500" d="M81 698H221V110H492V0H81V698ZM177 886H314L177 740H94L177 886Z"  />
<glyph unicode="&#x13A;" horiz-adv-x="278" d="M72 750H206V0H72V750ZM142 926H279L142 780H59L142 926Z"  />
<glyph unicode="&#x13B;" horiz-adv-x="500" d="M81 698H221V110H492V0H81V698ZM288 -222H188L225 -66H352L288 -222Z"  />
<glyph unicode="&#x13C;" horiz-adv-x="278" d="M72 750H206V0H72V750ZM143 -222H43L80 -66H207L143 -222Z"  />
<glyph unicode="&#x13D;" horiz-adv-x="500" d="M81 698H221V110H492V0H81V698ZM316 731H431L374 532H300L316 731Z"  />
<glyph unicode="&#x13E;" horiz-adv-x="353" d="M72 750H206V0H72V750ZM277 731H392L335 532H261L277 731Z"  />
<glyph unicode="&#x13F;" horiz-adv-x="500" d="M81 698H221V110H492V0H81V698ZM314 307V435H430V307H314Z"  />
<glyph unicode="&#x140;" horiz-adv-x="434" d="M72 750H206V0H72V750ZM283 307V435H399V307H283Z"  />
<glyph unicode="&#x141;" horiz-adv-x="500" d="M8 199V291L81 335V698H221V418L389 518V426L221 326V110H492V0H81V243L8 199Z"  />
<glyph unicode="&#x142;" horiz-adv-x="278" d="M0 250V342L72 385V750H206V465L278 508V416L206 373V0H72V293L0 250Z"  />
<glyph unicode="&#x143;" horiz-adv-x="722" d="M74 698H246L512 176H514V698H648V0H477L210 522H208V0H74V698ZM404 886H541L404 740H321L404 886Z"  />
<glyph unicode="&#x144;" horiz-adv-x="611" d="M69 515H196V445H198Q262 528 367 527Q458 526 501 470Q542 414 542 325V0H408V275Q408 300 407 326Q406 352 397 373Q390 396 372 410Q353 423 321 423Q285 423 263 406Q241 389 227 363Q214 337 209 308Q203 278 203 252V0H69V515ZM340 731H477L340 585H257L340 731Z"  />
<glyph unicode="&#x145;" horiz-adv-x="722" d="M74 698H246L512 176H514V698H648V0H477L210 522H208V0H74V698ZM385 -222H285L322 -66H449L385 -222Z"  />
<glyph unicode="&#x146;" horiz-adv-x="611" d="M69 515H196V445H198Q262 528 367 527Q458 526 501 470Q542 414 542 325V0H408V275Q408 300 407 326Q406 352 397 373Q390 396 372 410Q353 423 321 423Q285 423 263 406Q241 389 227 363Q214 337 209 308Q203 278 203 252V0H69V515ZM313 -222H213L250 -66H377L313 -222Z"  />
<glyph unicode="&#x147;" horiz-adv-x="722" d="M74 698H246L512 176H514V698H648V0H477L210 522H208V0H74V698ZM319 740L209 886H298L368 800L436 886H525L420 740H319Z"  />
<glyph unicode="&#x148;" horiz-adv-x="611" d="M69 515H196V445H198Q262 528 367 527Q458 526 501 470Q542 414 542 325V0H408V275Q408 300 407 326Q406 352 397 373Q390 396 372 410Q353 423 321 423Q285 423 263 406Q241 389 227 363Q214 337 209 308Q203 278 203 252V0H69V515ZM261 585L151 731H240L310 645L378 731H467L362 585H261Z"  />
<glyph unicode="&#x149;" horiz-adv-x="731" d="M38 698H180L98 468H-12L38 698ZM189 515H316V445H318Q382 528 487 527Q578 526 621 470Q662 414 662 325V0H528V275Q528 300 527 326Q526 352 517 373Q510 396 492 410Q473 423 441 423Q405 423 383 406Q361 389 347 363Q334 337 329 308Q323 278 323 252V0H189V515Z"  />
<glyph unicode="&#x14C;" horiz-adv-x="778" d="M47 351Q47 514 135 611Q222 709 389 710Q555 708 643 610Q731 513 731 351Q730 190 644 91Q556 -10 389 -12Q221 -10 135 90Q47 188 47 351ZM193 351Q192 253 238 178Q284 100 389 98Q443 98 481 120Q519 142 541 178Q585 253 585 351Q585 448 540 522Q493 598 389 600Q286 598 240 522Q193 448 193 351ZM249 773V853H537V773H249Z"  />
<glyph unicode="&#x14D;" horiz-adv-x="611" d="M36 254Q37 383 114 455Q189 526 305 527Q423 526 498 455Q574 383 575 254Q575 141 505 66Q435 -10 305 -12Q177 -10 107 66Q36 141 36 254ZM176 270Q176 255 178 240Q180 223 183 208Q189 176 203 150Q218 124 243 109Q267 92 305 92Q344 92 370 108Q395 123 410 149Q425 175 430 207Q435 238 435 270Q435 332 404 377Q371 422 305 423Q241 422 209 376Q176 331 176 270ZM162 618V698H450V618H162Z"  />
<glyph unicode="&#x14E;" horiz-adv-x="778" d="M47 351Q47 514 135 611Q222 709 389 710Q555 708 643 610Q731 513 731 351Q730 190 644 91Q556 -10 389 -12Q221 -10 135 90Q47 188 47 351ZM193 351Q192 253 238 178Q284 100 389 98Q443 98 481 120Q519 142 541 178Q585 253 585 351Q585 448 540 522Q493 598 389 600Q286 598 240 522Q193 448 193 351ZM289 886Q308 807 389 806Q471 807 491 886H553Q548 817 503 777Q458 734 389 734Q322 734 277 777Q232 817 227 886H289Z"  />
<glyph unicode="&#x14F;" horiz-adv-x="611" d="M36 254Q37 383 114 455Q189 526 305 527Q423 526 498 455Q574 383 575 254Q575 141 505 66Q435 -10 305 -12Q177 -10 107 66Q36 141 36 254ZM176 270Q176 255 178 240Q180 223 183 208Q189 176 203 150Q218 124 243 109Q267 92 305 92Q344 92 370 108Q395 123 410 149Q425 175 430 207Q435 238 435 270Q435 332 404 377Q371 422 305 423Q241 422 209 376Q176 331 176 270ZM206 730Q225 651 306 650Q388 651 408 730H470Q465 661 420 621Q375 578 306 578Q239 578 194 621Q149 661 144 730H206Z"  />
<glyph unicode="&#x150;" horiz-adv-x="778" d="M47 351Q47 514 135 611Q222 709 389 710Q555 708 643 610Q731 513 731 351Q730 190 644 91Q556 -10 389 -12Q221 -10 135 90Q47 188 47 351ZM193 351Q192 253 238 178Q284 100 389 98Q443 98 481 120Q519 142 541 178Q585 253 585 351Q585 448 540 522Q493 598 389 600Q286 598 240 522Q193 448 193 351ZM510 886H647L510 740H427L510 886ZM313 886H450L313 740H230L313 886Z"  />
<glyph unicode="&#x151;" horiz-adv-x="611" d="M36 254Q37 383 114 455Q189 526 305 527Q423 526 498 455Q574 383 575 254Q575 141 505 66Q435 -10 305 -12Q177 -10 107 66Q36 141 36 254ZM176 270Q176 255 178 240Q180 223 183 208Q189 176 203 150Q218 124 243 109Q267 92 305 92Q344 92 370 108Q395 123 410 149Q425 175 430 207Q435 238 435 270Q435 332 404 377Q371 422 305 423Q241 422 209 376Q176 331 176 270ZM427 731H564L427 585H344L427 731ZM230 730H367L230 584H147L230 730Z"  />
<glyph unicode="&#x152;" horiz-adv-x="944" d="M490 588Q459 593 416 594Q310 593 252 527Q193 459 193 345Q193 241 251 174Q309 108 420 104Q463 104 490 110V588ZM890 588H630V416H868V306H630V110H894V0H629Q517 -2 405 -6Q340 -6 278 9Q214 23 162 60Q111 98 80 168Q47 236 47 345Q55 704 423 704Q526 701 629 698H890V588Z"  />
<glyph unicode="&#x153;" horiz-adv-x="944" d="M176 257Q175 192 204 141Q233 87 305 86Q379 87 409 139Q418 151 424 165Q429 178 432 193Q438 223 438 255Q438 323 410 375Q379 427 305 429Q237 427 207 373Q176 319 176 257ZM572 216Q575 150 615 119Q654 86 715 86Q800 86 868 137L872 28Q866 25 854 18Q842 12 822 5Q782 -11 711 -12Q646 -12 591 6Q536 23 502 73Q461 21 407 4Q353 -13 305 -12Q177 -10 107 66Q36 141 36 254Q37 383 114 455Q189 526 305 527Q428 527 497 439Q528 484 576 506Q624 527 677 527Q815 525 863 433Q909 342 908 216H572ZM780 308Q779 358 756 393Q733 428 678 429Q627 428 600 393Q572 357 572 308H780Z"  />
<glyph unicode="&#x154;" horiz-adv-x="611" d="M209 400H255Q282 400 309 404Q335 407 356 417Q377 427 391 446Q403 466 403 497Q403 529 391 548Q377 566 356 575Q335 584 309 587Q282 588 255 588H209V400ZM69 698H220Q278 698 336 697Q394 694 442 677Q491 661 520 621Q548 582 549 509Q549 447 511 402Q473 357 405 347V345Q433 342 451 320Q469 298 479 273L591 0H435L351 218Q338 257 318 274Q297 290 254 290H209V0H69V698ZM295 886H432L295 740H212L295 886Z"  />
<glyph unicode="&#x155;" horiz-adv-x="389" d="M72 515H191V398H193Q199 438 237 481Q274 525 334 527Q354 527 375 523V388Q354 399 315 399Q275 399 253 377Q231 356 220 322Q210 290 208 254Q206 219 206 189V0H72V515ZM253 731H390L253 585H170L253 731Z"  />
<glyph unicode="&#x156;" horiz-adv-x="611" d="M209 400H255Q282 400 309 404Q335 407 356 417Q377 427 391 446Q403 466 403 497Q403 529 391 548Q377 566 356 575Q335 584 309 587Q282 588 255 588H209V400ZM69 698H220Q278 698 336 697Q394 694 442 677Q491 661 520 621Q548 582 549 509Q549 447 511 402Q473 357 405 347V345Q433 342 451 320Q469 298 479 273L591 0H435L351 218Q338 257 318 274Q297 290 254 290H209V0H69V698ZM317 -222H217L254 -66H381L317 -222Z"  />
<glyph unicode="&#x157;" horiz-adv-x="389" d="M72 515H191V398H193Q199 438 237 481Q274 525 334 527Q354 527 375 523V388Q354 399 315 399Q275 399 253 377Q231 356 220 322Q210 290 208 254Q206 219 206 189V0H72V515ZM140 -222H40L77 -66H204L140 -222Z"  />
<glyph unicode="&#x158;" horiz-adv-x="611" d="M209 400H255Q282 400 309 404Q335 407 356 417Q377 427 391 446Q403 466 403 497Q403 529 391 548Q377 566 356 575Q335 584 309 587Q282 588 255 588H209V400ZM69 698H220Q278 698 336 697Q394 694 442 677Q491 661 520 621Q548 582 549 509Q549 447 511 402Q473 357 405 347V345Q433 342 451 320Q469 298 479 273L591 0H435L351 218Q338 257 318 274Q297 290 254 290H209V0H69V698ZM237 740L127 886H216L286 800L354 886H443L338 740H237Z"  />
<glyph unicode="&#x159;" horiz-adv-x="389" d="M72 515H191V398H193Q199 438 237 481Q274 525 334 527Q354 527 375 523V388Q354 399 315 399Q275 399 253 377Q231 356 220 322Q210 290 208 254Q206 219 206 189V0H72V515ZM182 585L72 731H161L231 645L299 731H388L283 585H182Z"  />
<glyph unicode="&#x15A;" horiz-adv-x="556" d="M456 570Q389 599 314 600Q296 600 278 596Q259 592 242 581Q226 571 215 551Q204 532 204 503Q204 481 218 466Q232 451 253 439Q276 427 303 417Q329 406 358 394Q387 383 414 368Q442 352 463 329Q484 307 498 276Q510 244 510 199Q508 86 433 37Q358 -12 248 -12Q194 -12 157 -4Q119 3 69 15L82 141Q156 99 240 98Q283 98 323 120Q363 142 364 188Q364 213 352 231Q338 249 317 261Q271 285 212 307Q183 319 157 335Q130 350 107 371Q86 393 72 424Q58 455 58 497Q60 613 135 663Q207 710 302 710Q392 710 469 685L456 570H456ZM309 886H446L309 740H226L309 886Z"  />
<glyph unicode="&#x15B;" horiz-adv-x="444" d="M375 407Q346 418 319 424Q292 429 255 429Q227 429 203 418Q177 405 176 372Q177 343 213 331Q230 324 251 318Q272 312 293 304Q316 297 337 286Q357 274 373 258Q390 241 400 217Q409 192 409 156Q407 67 343 27Q279 -12 193 -12Q116 -11 41 10L49 120Q112 86 181 86Q209 86 238 100Q268 113 269 149Q269 169 260 182Q250 194 233 201Q198 215 153 227Q132 234 111 244Q90 254 73 270Q56 286 47 310Q36 333 36 367Q37 451 99 489Q157 527 238 527Q285 527 320 522Q354 516 384 508L375 407ZM255 731H392L255 585H172L255 731Z"  />
<glyph unicode="&#x15C;" horiz-adv-x="556" d="M456 570Q389 599 314 600Q296 600 278 596Q259 592 242 581Q226 571 215 551Q204 532 204 503Q204 481 218 466Q232 451 253 439Q276 427 303 417Q329 406 358 394Q387 383 414 368Q442 352 463 329Q484 307 498 276Q510 244 510 199Q508 86 433 37Q358 -12 248 -12Q194 -12 157 -4Q119 3 69 15L82 141Q156 99 240 98Q283 98 323 120Q363 142 364 188Q364 213 352 231Q338 249 317 261Q271 285 212 307Q183 319 157 335Q130 350 107 371Q86 393 72 424Q58 455 58 497Q60 613 135 663Q207 710 302 710Q392 710 469 685L456 570H456ZM342 886L447 740H358L290 826L220 740H131L241 886H342Z"  />
<glyph unicode="&#x15D;" horiz-adv-x="444" d="M375 407Q346 418 319 424Q292 429 255 429Q227 429 203 418Q177 405 176 372Q177 343 213 331Q230 324 251 318Q272 312 293 304Q316 297 337 286Q357 274 373 258Q390 241 400 217Q409 192 409 156Q407 67 343 27Q279 -12 193 -12Q116 -11 41 10L49 120Q112 86 181 86Q209 86 238 100Q268 113 269 149Q269 169 260 182Q250 194 233 201Q198 215 153 227Q132 234 111 244Q90 254 73 270Q56 286 47 310Q36 333 36 367Q37 451 99 489Q157 527 238 527Q285 527 320 522Q354 516 384 508L375 407ZM278 731L383 585H294L226 671L156 585H67L177 731H278Z"  />
<glyph unicode="&#x15E;" horiz-adv-x="556" d="M163 -147Q176 -151 195 -156Q214 -161 236 -162Q256 -162 270 -155Q285 -146 286 -127Q286 -108 273 -99Q261 -90 242 -91Q219 -91 200 -100L185 -74L234 -12Q189 -11 157 -4Q119 3 69 15L82 141Q156 99 240 98Q283 98 323 120Q363 142 364 188Q364 213 352 231Q338 249 317 261Q271 285 212 307Q183 319 157 335Q130 350 107 371Q86 393 72 424Q58 455 58 497Q60 613 135 663Q207 710 302 710Q392 710 469 685L456 570Q389 599 314 600Q296 600 278 596Q259 592 242 581Q226 571 215 551Q204 532 204 503Q204 481 218 466Q232 451 253 439Q276 427 303 417Q329 406 358 394Q387 383 414 368Q442 352 463 329Q484 307 498 276Q510 244 510 199Q508 86 433 37Q376 0 299 -9L261 -53L263 -55Q281 -49 304 -49Q333 -49 357 -65Q383 -82 384 -120Q383 -170 344 -198Q306 -222 252 -222Q218 -222 190 -216Q163 -211 143 -201L163 -147Z"  />
<glyph unicode="&#x15F;" horiz-adv-x="444" d="M108 -147Q121 -151 140 -156Q159 -161 181 -162Q201 -162 215 -155Q230 -146 231 -127Q231 -108 218 -99Q206 -90 187 -91Q164 -91 145 -100L130 -74L179 -12Q109 -9 41 10L49 120Q112 86 181 86Q209 86 238 100Q268 113 269 149Q269 169 260 182Q250 194 233 201Q198 215 153 227Q132 234 111 244Q90 254 73 270Q56 286 47 310Q36 333 36 367Q37 451 99 489Q157 527 238 527Q285 527 320 522Q354 516 384 508L375 407Q346 418 319 424Q292 429 255 429Q227 429 203 418Q177 405 176 372Q177 343 213 331Q230 324 251 318Q272 312 293 304Q316 297 337 286Q357 274 373 258Q390 241 400 217Q409 192 409 156Q407 67 343 27Q299 0 245 -8L206 -53L208 -55Q226 -49 249 -49Q278 -49 302 -65Q328 -82 329 -120Q328 -170 289 -198Q251 -222 197 -222Q163 -222 135 -216Q108 -211 88 -201L108 -147Z"  />
<glyph unicode="&#x160;" horiz-adv-x="556" d="M456 570Q389 599 314 600Q296 600 278 596Q259 592 242 581Q226 571 215 551Q204 532 204 503Q204 481 218 466Q232 451 253 439Q276 427 303 417Q329 406 358 394Q387 383 414 368Q442 352 463 329Q484 307 498 276Q510 244 510 199Q508 86 433 37Q358 -12 248 -12Q194 -12 157 -4Q119 3 69 15L82 141Q156 99 240 98Q283 98 323 120Q363 142 364 188Q364 213 352 231Q338 249 317 261Q271 285 212 307Q183 319 157 335Q130 350 107 371Q86 393 72 424Q58 455 58 497Q60 613 135 663Q207 710 302 710Q392 710 469 685L456 570H456ZM235 740L125 886H214L284 800L352 886H441L336 740H235Z"  />
<glyph unicode="&#x161;" horiz-adv-x="444" d="M375 407Q346 418 319 424Q292 429 255 429Q227 429 203 418Q177 405 176 372Q177 343 213 331Q230 324 251 318Q272 312 293 304Q316 297 337 286Q357 274 373 258Q390 241 400 217Q409 192 409 156Q407 67 343 27Q279 -12 193 -12Q116 -11 41 10L49 120Q112 86 181 86Q209 86 238 100Q268 113 269 149Q269 169 260 182Q250 194 233 201Q198 215 153 227Q132 234 111 244Q90 254 73 270Q56 286 47 310Q36 333 36 367Q37 451 99 489Q157 527 238 527Q285 527 320 522Q354 516 384 508L375 407ZM174 585L64 731H153L223 645L291 731H380L275 585H174Z"  />
<glyph unicode="&#x162;" horiz-adv-x="556" d="M208 588H8V698H548V588H348V0H208V588ZM281 -222H181L218 -66H345L281 -222Z"  />
<glyph unicode="&#x163;" horiz-adv-x="389" d="M113 417H14V515H113V618L247 661V515H366V417H247V177Q246 143 260 119Q273 93 310 92Q348 92 371 106L375 0Q335 -12 276 -12Q114 -8 113 155V417ZM221 -222H121L158 -66H285L221 -222Z"  />
<glyph unicode="&#x164;" horiz-adv-x="556" d="M208 588H8V698H548V588H348V0H208V588ZM230 740L120 886H209L279 800L347 886H436L331 740H230Z"  />
<glyph unicode="&#x165;" horiz-adv-x="398" d="M314 731H423L372 552H299L314 731ZM113 417H14V515H113V618L247 661V515H366V417H247V177Q246 143 260 119Q273 93 310 92Q348 92 371 106L375 0Q335 -12 276 -12Q114 -8 113 155V417Z"  />
<glyph unicode="&#x166;" horiz-adv-x="556" d="M208 588H8V698H548V588H348V455H504V365H348V0H208V365H53V455H208V588Z"  />
<glyph unicode="&#x167;" horiz-adv-x="389" d="M113 420H14V515H113V618L247 661V515H366V420H247V328H342V253H247V177Q246 143 260 119Q273 93 310 92Q348 92 371 106L375 0Q335 -12 276 -12Q114 -8 113 155V253H27V328H113V420Z"  />
<glyph unicode="&#x168;" horiz-adv-x="722" d="M76 698H216V295Q215 205 249 153Q283 98 361 98Q441 98 474 153Q506 205 506 295V698H646V252Q642 -16 361 -12Q80 -16 76 252V698ZM187 758Q188 805 217 842Q245 878 289 879Q312 879 331 873Q351 867 370 859Q389 851 407 845Q424 837 443 837Q487 839 487 886H541Q541 835 517 801Q491 766 444 765Q417 765 398 771Q377 776 358 783Q320 801 290 802Q265 801 253 788Q241 774 241 758H187Z"  />
<glyph unicode="&#x169;" horiz-adv-x="611" d="M542 0H415V70H413Q350 -10 244 -12Q153 -11 112 46Q69 102 69 190V515H203V240Q203 229 205 217Q205 205 206 192Q208 166 215 143Q224 121 241 107Q259 92 290 92Q327 92 351 111Q374 128 386 154Q400 180 404 209Q408 238 408 263V515H542V0ZM131 603Q132 650 161 687Q189 723 233 724Q256 724 275 718Q295 712 314 704Q333 696 351 690Q368 682 387 682Q431 684 431 731H485Q485 680 461 646Q435 611 388 610Q361 610 342 616Q321 621 302 628Q264 646 234 647Q209 646 197 633Q185 619 185 603H131Z"  />
<glyph unicode="&#x16A;" horiz-adv-x="722" d="M76 698H216V295Q215 205 249 153Q283 98 361 98Q441 98 474 153Q506 205 506 295V698H646V252Q642 -16 361 -12Q80 -16 76 252V698ZM220 773V853H508V773H220Z"  />
<glyph unicode="&#x16B;" horiz-adv-x="611" d="M542 0H415V70H413Q350 -10 244 -12Q153 -11 112 46Q69 102 69 190V515H203V240Q203 229 205 217Q205 205 206 192Q208 166 215 143Q224 121 241 107Q259 92 290 92Q327 92 351 111Q374 128 386 154Q400 180 404 209Q408 238 408 263V515H542V0ZM165 618V698H453V618H165Z"  />
<glyph unicode="&#x16C;" horiz-adv-x="722" d="M76 698H216V295Q215 205 249 153Q283 98 361 98Q441 98 474 153Q506 205 506 295V698H646V252Q642 -16 361 -12Q80 -16 76 252V698ZM265 886Q284 807 365 806Q447 807 467 886H529Q524 817 479 777Q434 734 365 734Q298 734 253 777Q208 817 203 886H265Z"  />
<glyph unicode="&#x16D;" horiz-adv-x="611" d="M542 0H415V70H413Q350 -10 244 -12Q153 -11 112 46Q69 102 69 190V515H203V240Q203 229 205 217Q205 205 206 192Q208 166 215 143Q224 121 241 107Q259 92 290 92Q327 92 351 111Q374 128 386 154Q400 180 404 209Q408 238 408 263V515H542V0ZM210 730Q229 651 310 650Q392 651 412 730H474Q469 661 424 621Q379 578 310 578Q243 578 198 621Q153 661 148 730H210Z"  />
<glyph unicode="&#x16E;" horiz-adv-x="722" d="M76 698H216V295Q215 205 249 153Q283 98 361 98Q441 98 474 153Q506 205 506 295V698H646V252Q642 -16 361 -12Q80 -16 76 252V698ZM363 879Q341 879 327 864T313 828Q313 806 327 792T363 778Q385 778 399 792T414 828Q414 850 400 864T363 879ZM468 828Q468 807 460 788T437 755T403 732T363 724Q342 724 323 732T290 755T268 788T259 828Q259 849 267 868T289 901T323 924T363 933Q384 933 403 925T437 902T459 869T468 828Z"  />
<glyph unicode="&#x16F;" horiz-adv-x="611" d="M542 0H415V70H413Q350 -10 244 -12Q153 -11 112 46Q69 102 69 190V515H203V240Q203 229 205 217Q205 205 206 192Q208 166 215 143Q224 121 241 107Q259 92 290 92Q327 92 351 111Q374 128 386 154Q400 180 404 209Q408 238 408 263V515H542V0ZM202 685Q203 730 235 761Q265 791 309 792Q355 791 385 761Q414 730 415 685Q414 641 385 611Q355 579 309 579Q265 579 235 611Q203 641 202 685ZM256 685Q256 663 272 649Q286 633 309 633Q332 633 347 649Q361 663 361 685Q361 708 347 724Q332 738 309 738Q286 738 272 724Q256 708 256 685Z"  />
<glyph unicode="&#x170;" horiz-adv-x="722" d="M76 698H216V295Q215 205 249 153Q283 98 361 98Q441 98 474 153Q506 205 506 295V698H646V252Q642 -16 361 -12Q80 -16 76 252V698ZM482 886H619L482 740H399L482 886ZM285 886H422L285 740H202L285 886Z"  />
<glyph unicode="&#x171;" horiz-adv-x="611" d="M542 0H415V70H413Q350 -10 244 -12Q153 -11 112 46Q69 102 69 190V515H203V240Q203 229 205 217Q205 205 206 192Q208 166 215 143Q224 121 241 107Q259 92 290 92Q327 92 351 111Q374 128 386 154Q400 180 404 209Q408 238 408 263V515H542V0ZM427 731H564L427 585H344L427 731ZM230 730H367L230 584H147L230 730Z"  />
<glyph unicode="&#x172;" horiz-adv-x="722" d="M76 698H216V295Q215 205 249 153Q283 98 361 98Q441 98 474 153Q506 205 506 295V698H646V252Q642 12 418 -9Q395 -28 375 -52Q349 -83 348 -122Q347 -167 389 -168Q406 -167 421 -157Q436 -147 445 -135L485 -143Q468 -182 439 -202Q410 -222 360 -222Q316 -222 290 -199Q262 -177 262 -132Q262 -108 275 -87Q286 -67 304 -51Q331 -28 359 -12Q80 -15 76 252V698Z"  />
<glyph unicode="&#x173;" horiz-adv-x="611" d="M488 0Q458 -22 432 -52Q406 -83 405 -122Q404 -167 446 -168Q463 -167 478 -157Q493 -147 502 -135L542 -143Q525 -182 496 -202Q467 -222 417 -222Q373 -222 347 -199Q319 -177 319 -132Q319 -108 332 -87Q343 -67 361 -51Q400 -19 439 0H415V70H413Q350 -10 244 -12Q153 -11 112 46Q69 102 69 190V515H203V240Q203 229 205 217Q205 205 206 192Q208 166 215 143Q224 121 241 107Q259 92 290 92Q327 92 351 111Q374 128 386 154Q400 180 404 209Q408 238 408 263V515H542V0H488Z"  />
<glyph unicode="&#x174;" horiz-adv-x="1000" d="M10 698H157L287 140H289L408 698H598L721 140H723L854 698H990L808 0H628L502 558H500L376 0H195L10 698ZM558 886L663 740H574L506 826L436 740H347L457 886H558Z"  />
<glyph unicode="&#x175;" horiz-adv-x="889" d="M11 515H153L267 134H269L373 515H529L641 134H643L750 515H878L720 0H562L450 393H448L338 0H185L11 515ZM508 731L613 585H524L456 671L386 585H297L407 731H508Z"  />
<glyph unicode="&#x176;" horiz-adv-x="667" d="M266 276L11 698H175L340 405L508 698H656L406 276V0H266V276ZM396 886L501 740H412L344 826L274 740H185L295 886H396Z"  />
<glyph unicode="&#x177;" horiz-adv-x="556" d="M283 139H285L409 515H545L352 4Q337 -38 321 -78Q305 -119 282 -151Q260 -183 226 -202Q190 -222 138 -222Q90 -222 43 -208L52 -109Q75 -118 121 -118Q162 -117 185 -92Q208 -67 208 -26L11 515H159L283 139ZM337 731L442 585H353L285 671L215 585H126L236 731H337Z"  />
<glyph unicode="&#x178;" horiz-adv-x="667" d="M266 276L11 698H175L340 405L508 698H656L406 276V0H266V276ZM501 880V764H385V880H501ZM179 764V880H295V764H179Z"  />
<glyph unicode="&#x179;" horiz-adv-x="556" d="M36 114L364 588H49V698H513V584L182 110H520V0H36V114ZM315 886H452L315 740H232L315 886Z"  />
<glyph unicode="&#x17A;" horiz-adv-x="500" d="M47 515H455V405L199 104H464V0H36V109L297 411H47V515ZM283 731H420L283 585H200L283 731Z"  />
<glyph unicode="&#x17B;" horiz-adv-x="556" d="M36 114L364 588H49V698H513V584L182 110H520V0H36V114ZM238 764V880H354V764H238Z"  />
<glyph unicode="&#x17C;" horiz-adv-x="500" d="M47 515H455V405L199 104H464V0H36V109L297 411H47V515ZM207 609V737H323V609H207Z"  />
<glyph unicode="&#x17D;" horiz-adv-x="556" d="M36 114L364 588H49V698H513V584L182 110H520V0H36V114ZM230 740L120 886H209L279 800L347 886H436L331 740H230Z"  />
<glyph unicode="&#x17E;" horiz-adv-x="500" d="M47 515H455V405L199 104H464V0H36V109L297 411H47V515ZM202 585L92 731H181L251 645L319 731H408L303 585H202Z"  />
<glyph unicode="&#x192;" horiz-adv-x="556" d="M238 406L269 546Q286 628 331 670Q375 710 463 710Q506 710 547 701L529 595Q517 598 504 603Q491 606 471 606Q439 606 424 584Q408 561 401 524L376 406H497L484 326H360L299 -3Q295 -29 286 -65Q276 -102 256 -137Q237 -172 202 -196Q167 -221 112 -222Q86 -222 60 -220Q33 -219 8 -212L28 -113Q53 -118 80 -118Q122 -116 136 -84Q149 -53 152 -27L222 326H109L124 406H238Z"  />
<glyph unicode="&#x218;" horiz-adv-x="556" d="M456 570Q389 599 314 600Q296 600 278 596Q259 592 242 581Q226 571 215 551Q204 532 204 503Q204 481 218 466Q232 451 253 439Q276 427 303 417Q329 406 358 394Q387 383 414 368Q442 352 463 329Q484 307 498 276Q510 244 510 199Q508 86 433 37Q358 -12 248 -12Q194 -12 157 -4Q119 3 69 15L82 141Q156 99 240 98Q283 98 323 120Q363 142 364 188Q364 213 352 231Q338 249 317 261Q271 285 212 307Q183 319 157 335Q130 350 107 371Q86 393 72 424Q58 455 58 497Q60 613 135 663Q207 710 302 710Q392 710 469 685L456 570H456ZM280 -222H180L217 -66H344L280 -222Z"  />
<glyph unicode="&#x219;" horiz-adv-x="444" d="M375 407Q346 418 319 424Q292 429 255 429Q227 429 203 418Q177 405 176 372Q177 343 213 331Q230 324 251 318Q272 312 293 304Q316 297 337 286Q357 274 373 258Q390 241 400 217Q409 192 409 156Q407 67 343 27Q279 -12 193 -12Q116 -11 41 10L49 120Q112 86 181 86Q209 86 238 100Q268 113 269 149Q269 169 260 182Q250 194 233 201Q198 215 153 227Q132 234 111 244Q90 254 73 270Q56 286 47 310Q36 333 36 367Q37 451 99 489Q157 527 238 527Q285 527 320 522Q354 516 384 508L375 407ZM228 -222H128L165 -66H292L228 -222Z"  />
<glyph unicode="&#x21A;" horiz-adv-x="556" d="M208 588H8V698H548V588H348V0H208V588ZM281 -222H181L218 -66H345L281 -222Z"  />
<glyph unicode="&#x21B;" horiz-adv-x="389" d="M113 417H14V515H113V618L247 661V515H366V417H247V177Q246 143 260 119Q273 93 310 92Q348 92 371 106L375 0Q335 -12 276 -12Q114 -8 113 155V417ZM221 -222H121L158 -66H285L221 -222Z"  />
<glyph unicode="&#x237;" horiz-adv-x="278" d="M-10 -118Q43 -116 59 -97Q73 -78 72 -20V515H206V-38Q206 -65 201 -96Q195 -128 179 -157Q163 -184 133 -203Q102 -221 51 -222Q14 -222 -15 -214L-10 -118Z"  />
<glyph unicode="&#x2C6;" horiz-adv-x="278" d="M192 731L297 585H208L140 671L70 585H-19L91 731H192Z"  />
<glyph unicode="&#x2C7;" horiz-adv-x="278" d="M91 585L-19 731H70L140 645L208 731H297L192 585H91Z"  />
<glyph unicode="&#x2C9;" horiz-adv-x="278" d="M-5 618V698H283V618H-5Z"  />
<glyph unicode="&#x2D8;" horiz-adv-x="278" d="M38 730Q57 651 138 650Q220 651 240 730H302Q297 661 252 621Q207 578 138 578Q71 578 26 621Q-19 661 -24 730H38Z"  />
<glyph unicode="&#x2D9;" horiz-adv-x="278" d="M81 609V737H197V609H81Z"  />
<glyph unicode="&#x2DA;" horiz-adv-x="278" d="M33 685Q34 730 66 761Q96 791 140 792Q186 791 216 761Q245 730 246 685Q245 641 216 611Q186 579 140 579Q96 579 66 611Q34 641 33 685ZM87 685Q87 663 103 649Q117 633 140 633Q163 633 178 649Q192 663 192 685Q192 708 178 724Q163 738 140 738Q117 738 103 724Q87 708 87 685Z"  />
<glyph unicode="&#x2DB;" horiz-adv-x="278" d="M230 0Q200 -22 174 -52Q148 -83 147 -123Q146 -167 188 -168Q205 -167 220 -157Q235 -147 244 -135L284 -143Q267 -182 238 -202Q209 -222 159 -222Q115 -222 89 -199Q61 -177 61 -132Q61 -108 74 -87Q85 -67 103 -51Q142 -19 181 0H230Z"  />
<glyph unicode="&#x2DC;" horiz-adv-x="278" d="M-38 603Q-37 650 -8 687Q20 723 64 724Q87 724 106 718Q126 712 145 704Q164 696 182 690Q199 682 218 682Q262 684 262 731H316Q316 680 292 646Q266 611 219 610Q192 610 173 616Q152 621 133 628Q95 646 65 647Q40 646 28 633Q16 619 16 603H-38Z"  />
<glyph unicode="&#x2DD;" horiz-adv-x="278" d="M210 731H347L210 585H127L210 731ZM13 730H150L13 584H-70L13 730Z"  />
<glyph unicode="&#x394;" horiz-adv-x="683" d="M334 588L154 98H524L334 588ZM9 0L281 712H391L675 0H9Z"  />
<glyph unicode="&#x3A9;" horiz-adv-x="757" d="M426 0V188Q465 196 495 215T545 263T575 326T586 400Q586 446 571 486T527 557T460 604T373 622Q325 622 286 605T219 557T175 485T159 398Q159 317 198 262T317 188V0H46V91H229V138Q183 153 149 179T92 240T58 317T46 406Q46 475 71 533T141 632T245 697T372 721Q440 721 499 699T603 635T672 537T698 409Q698 362 687 319T653 241T596 179T514 138V91H698V0H426Z"  />
<glyph unicode="&#x3BC;" horiz-adv-x="611" d="M69 515H203V240Q203 229 205 217Q205 205 206 192Q208 166 215 143Q224 121 241 107Q259 92 290 92Q327 92 351 111Q374 128 386 154Q400 180 404 209Q408 238 408 263V515H542V0H415V70H413Q402 42 372 16Q342 -11 302 -12Q278 -12 253 -6Q228 -1 205 22H203V-210H69V515Z"  />
<glyph unicode="&#x3C0;" horiz-adv-x="589" d="M566 13Q545 3 526 -2T483 -7Q450 -7 430 3T400 30T386 72T383 123V387H172V0H71V387H1V483H563V387H484V138Q484 127 484 117T489 98T500 84T522 79Q543 79 566 89V13H566Z"  />
<glyph unicode="&#x2013;" horiz-adv-x="500" d="M0 315H500V223H0V315Z"  />
<glyph unicode="&#x2014;" horiz-adv-x="1000" d="M0 315H1000V223H0V315Z"  />
<glyph unicode="&#x2018;" horiz-adv-x="278" d="M125 698H244L181 448H34L125 698Z"  />
<glyph unicode="&#x2019;" horiz-adv-x="278" d="M98 698H244L152 448H34L98 698Z"  />
<glyph unicode="&#x201A;" horiz-adv-x="278" d="M98 140H244L152 -110H34L98 140Z"  />
<glyph unicode="&#x201C;" horiz-adv-x="481" d="M125 698H244L181 448H34L125 698ZM328 698H447L384 448H237L328 698Z"  />
<glyph unicode="&#x201D;" horiz-adv-x="481" d="M98 698H244L152 448H34L98 698ZM301 698H447L355 448H237L301 698Z"  />
<glyph unicode="&#x201E;" horiz-adv-x="481" d="M301 140H447L355 -110H237L301 140ZM98 140H244L152 -110H34L98 140Z"  />
<glyph unicode="&#x2020;" horiz-adv-x="556" d="M59 539H214V698H342V539H497V435H342V0H214V435H59V539Z"  />
<glyph unicode="&#x2021;" horiz-adv-x="556" d="M59 555H214V698H342V555H497V457H342V245H497V147H342V0H214V147H59V245H214V457H59V555Z"  />
<glyph unicode="&#x2022;" horiz-adv-x="500" d="M76 349Q77 423 128 473Q176 522 250 523Q324 522 374 473Q424 423 425 349Q424 276 374 226Q324 175 250 174Q176 175 128 226Q77 276 76 349Z"  />
<glyph unicode="&#x2026;" horiz-adv-x="1000" d="M97 0V140H237V0H97ZM430 0V140H570V0H430ZM763 0V140H903V0H763Z"  />
<glyph unicode="&#x2030;" horiz-adv-x="1000" d="M151 436Q170 436 180 446Q190 454 194 468Q201 498 200 537Q201 577 194 607Q190 622 180 630Q170 638 151 638Q133 638 123 630Q113 622 108 607Q100 577 101 537Q100 498 108 468Q113 454 123 446Q133 436 151 436ZM502 720H584L155 -22H73L502 720ZM151 364Q111 364 84 378Q56 392 39 416Q23 440 16 472Q9 504 9 540Q9 578 16 609Q20 624 26 638Q32 652 39 662Q56 685 84 698Q111 710 151 710Q193 710 220 698Q247 685 263 662Q292 615 292 540Q292 466 263 416Q247 392 220 378Q193 364 151 364ZM515 60Q534 60 544 70Q554 78 558 92Q565 122 564 161Q565 201 558 231Q554 246 544 254Q534 262 515 262Q497 262 487 254Q477 246 472 231Q464 201 465 161Q464 122 472 92Q477 78 487 70Q497 60 515 60ZM515 -12Q475 -12 448 2Q420 16 403 40Q387 64 380 96Q373 128 373 164Q373 202 380 233Q384 248 390 262Q396 276 403 286Q420 309 448 322Q475 334 515 334Q557 334 584 322Q611 309 627 286Q656 239 656 164Q656 90 627 40Q611 16 584 2Q557 -12 515 -12ZM851 -12Q811 -12 784 2Q756 16 739 40Q723 64 716 96Q709 128 709 164Q709 202 716 233Q720 248 726 262Q732 276 739 286Q756 309 784 322Q811 334 851 334Q893 334 920 322Q947 309 963 286Q992 239 992 164Q992 90 963 40Q947 16 920 2Q893 -12 851 -12ZM851 60Q870 60 880 70Q890 78 894 92Q901 122 900 161Q901 201 894 231Q890 246 880 254Q870 262 851 262Q833 262 823 254Q813 246 808 231Q800 201 801 161Q800 122 808 92Q813 78 823 70Q833 60 851 60Z"  />
<glyph unicode="&#x2039;" horiz-adv-x="333" d="M167 474H293L183 269L293 64H167L49 269L167 474Z"  />
<glyph unicode="&#x203A;" horiz-adv-x="333" d="M166 64H40L150 269L40 474H166L284 269L166 64Z"  />
<glyph unicode="&#x2044;" horiz-adv-x="167" d="M251 720H333L-84 -22H-166L251 720Z"  />
<glyph unicode="&#x20AC;" horiz-adv-x="556" d="M596 683L570 579Q522 603 452 603Q377 603 324 562T248 449H541L526 388H232Q228 349 232 310H508L494 249H248Q271 179 324 139T451 98Q520 98 570 120L576 8Q520 -12 432 -12Q303 -12 214 56Q122 125 95 249H-4L11 310H86Q83 350 86 388H-4L11 449H96Q124 568 215 639T430 710Q521 710 596 683Z"  />
<glyph unicode="&#x2113;" horiz-adv-x="500" d="M440 48Q369 -14 285 -14Q215 -14 175 23T135 125V195L78 142H76L37 202L134 287V533Q134 575 146 609T180 668T231 707T295 721Q356 721 392 683T429 579Q429 503 384 428T246 269V143Q246 121 252 107T267 84T288 72T312 68Q353 68 400 106H402L440 48H440ZM338 572Q338 604 326 625T294 646Q274 646 260 623T246 554V364Q294 416 316 469T338 572Z"  />
<glyph unicode="&#x2122;" horiz-adv-x="1000" d="M465 698H610L709 438L807 698H952V282H854V576H852L746 282H671L565 576H563V282H465V698ZM165 618H48V698H386V618H269V282H165V618Z"  />
<glyph unicode="&#x2126;" horiz-adv-x="757" d="M426 0V188Q465 196 495 215T545 263T575 326T586 400Q586 446 571 486T527 557T460 604T373 622Q325 622 286 605T219 557T175 485T159 398Q159 317 198 262T317 188V0H46V91H229V138Q183 153 149 179T92 240T58 317T46 406Q46 475 71 533T141 632T245 697T372 721Q440 721 499 699T603 635T672 537T698 409Q698 362 687 319T653 241T596 179T514 138V91H698V0H426Z"  />
<glyph unicode="&#x212E;" horiz-adv-x="600" d="M157 259V78Q216 19 302 19Q365 19 411 47T495 139L530 118Q507 82 484 57T433 15T373 -9T302 -17Q243 -17 196 4T114 63T62 151T44 259Q44 317 62 367T114 455T195 513T302 535Q360 535 407 515T489 458T542 371T561 259H157ZM448 295V440Q385 500 301 500Q217 500 157 440V295H448Z"  />
<glyph unicode="&#x2202;" horiz-adv-x="548" d="M396 287Q370 318 340 336T267 354Q235 354 212 342T173 310T150 264T142 209Q142 182 149 157T170 112T206 80T259 68Q295 68 321 87T365 135T390 199T397 264L396 287ZM507 359Q507 296 497 230T459 111T382 23T255 -12Q206 -12 166 5T98 53T55 125T39 215Q39 262 54 302T97 371T164 417T251 434Q294 434 330 419T398 376L399 406Q400 443 393 483T367 558T318 615T242 638Q208 638 179 624T124 590L67 656Q108 688 146 704T238 721Q315 721 366 689T449 605T494 489T507 359Z"  />
<glyph unicode="&#x2206;" horiz-adv-x="683" d="M334 588L154 98H524L334 588ZM9 0L281 712H391L675 0H9Z"  />
<glyph unicode="&#x220F;" horiz-adv-x="737" d="M566 -214V688H170V-214H63V786H674V-214H566Z"  />
<glyph unicode="&#x2211;" horiz-adv-x="643" d="M25 -214V-128L331 291L38 702V786H605V688H181L460 292L163 -117H618V-214H25Z"  />
<glyph unicode="&#x2212;" horiz-adv-x="600" d="M46 201V305H554V201H46Z"  />
<glyph unicode="&#x2215;" horiz-adv-x="167" d="M251 720H333L-84 -22H-166L251 720Z"  />
<glyph unicode="&#x2219;" horiz-adv-x="278" d="M139 207Q104 207 84 229Q62 251 62 284Q62 319 84 340Q104 360 139 361Q174 360 196 340Q216 319 216 284Q216 251 196 229Q174 207 139 207Z"  />
<glyph unicode="&#x221A;" horiz-adv-x="531" d="M332 -214H231L78 105L28 82L-12 167L131 232L264 -49L434 786H543L332 -214Z"  />
<glyph unicode="&#x221E;" horiz-adv-x="806" d="M348 258Q335 271 319 286T285 314T247 335T208 344Q172 344 151 319T130 259Q130 222 151 199T211 176Q230 176 249 183T286 203T320 229T348 258ZM675 259Q675 296 654 320T595 345Q575 345 556 337T520 315T487 286T458 257Q471 243 487 229T520 202T557 183T598 175Q635 175 655 199T675 259ZM761 262Q761 224 750 192T718 135T666 97T596 83Q565 83 539 92T489 118T444 154T403 195Q382 174 362 154T319 119T270 95T211 85Q173 85 142 98T89 135T56 190T44 260Q44 297 55 329T88 385T139 422T208 436Q240 436 267 426T318 400T362 362T403 318Q422 340 443 361T488 399T539 426T597 437Q635 437 665 424T717 387T749 331T761 262Z"  />
<glyph unicode="&#x222B;" horiz-adv-x="600" d="M474 713Q474 692 459 678T423 664Q401 664 391 674T376 696T366 719T352 729Q339 729 336 718T333 697Q333 664 334 631T335 564L336 40Q336 1 335 -43T320 -126T278 -189T195 -214Q179 -214 161 -210T128 -197T103 -175T93 -142Q93 -121 106 -107T141 -93Q162 -93 172 -103T188 -126T198 -149T211 -160Q220 -160 224 -155T229 -141T231 -125T230 -111Q230 -87 229 -63T227 -14V521Q227 561 227 607T240 693T282 759T369 786Q385 786 403 782T437 769T463 746T474 713Z"  />
<glyph unicode="&#x2248;" horiz-adv-x="593" d="M563 241Q560 209 551 179T524 126T481 88T418 74Q388 74 352 85T281 108T215 132T161 143Q132 143 116 122T96 74H28Q31 105 40 135T67 189T109 227T171 242Q203 242 236 232T303 209T369 186T432 175Q461 175 476 195T496 241H563H563ZM565 444Q562 412 553 382T526 329T483 291T420 277Q390 277 354 288T283 311T217 335T163 346Q134 346 119 325T98 277H30Q33 308 42 338T68 392T111 430T173 445Q204 445 238 435T305 412T372 389T434 378Q463 378 477 398T497 444H565H565Z"  />
<glyph unicode="&#x2260;" horiz-adv-x="593" d="M271 99L193 -53L104 -7L159 99H37V201H210L271 318H37V419H322L399 571L488 526L434 419H556V318H382L322 201H556V99H271Z"  />
<glyph unicode="&#x2264;" horiz-adv-x="593" d="M37 -35V66H556V-35H37ZM37 272V375L556 554V447L175 324L556 207V100L37 272Z"  />
<glyph unicode="&#x2265;" horiz-adv-x="593" d="M37 -35V66H556V-35H37ZM37 100V207L417 324L37 447V554L556 375V272L37 100Z"  />
<glyph unicode="&#x25CA;" horiz-adv-x="593" d="M295 646L176 356L295 65L417 356L295 646ZM343 -35H248L72 356L248 747H343L520 356L343 -35Z"  />
<glyph unicode="&#xE300;" horiz-adv-x="278" d="M221 740H138L1 886H138L221 740Z"  />
<glyph unicode="&#xE301;" horiz-adv-x="278" d="M139 886H276L139 740H56L139 886Z"  />
<glyph unicode="&#xE302;" horiz-adv-x="278" d="M191 886L296 740H207L139 826L69 740H-20L90 886H191Z"  />
<glyph unicode="&#xE303;" horiz-adv-x="278" d="M90 740L-20 886H69L139 800L207 886H296L191 740H90Z"  />
<glyph unicode="&#xE304;" horiz-adv-x="278" d="M-39 758Q-38 805 -9 842Q19 878 63 879Q86 879 105 873Q125 867 144 859Q163 851 181 845Q198 837 217 837Q261 839 261 886H315Q315 835 291 801Q265 766 218 765Q191 765 172 771Q151 776 132 783Q94 801 64 802Q39 801 27 788Q15 774 15 758H-39Z"  />
<glyph unicode="&#xE305;" horiz-adv-x="278" d="M299 880V764H183V880H299ZM-23 764V880H93V764H-23Z"  />
<glyph unicode="&#xE306;" horiz-adv-x="278" d="M-6 773V853H282V773H-6Z"  />
<glyph unicode="&#xE307;" horiz-adv-x="278" d="M37 886Q56 807 137 806Q219 807 239 886H301Q296 817 251 777Q206 734 137 734Q70 734 25 777Q-20 817 -25 886H37Z"  />
<glyph unicode="&#xE308;" horiz-adv-x="278" d="M140 879Q118 879 104 864T90 828Q90 806 104 792T140 778Q162 778 176 792T191 828Q191 850 177 864T140 879ZM245 828Q245 807 237 788T214 755T180 732T140 724Q119 724 100 732T67 755T45 788T36 828Q36 849 44 868T66 901T100 924T140 933Q161 933 180 925T214 902T236 869T245 828Z"  />
<glyph unicode="&#xE309;" horiz-adv-x="278" d="M209 886H346L209 740H126L209 886ZM12 886H149L12 740H-71L12 886Z"  />
<glyph unicode="&#xE30A;" horiz-adv-x="278" d="M80 764V880H196V764H80Z"  />
<glyph unicode="&#xE30B;" horiz-adv-x="278" d="M29 731H144L87 532H13L29 731Z"  />
<glyph unicode="&#xE30C;" horiz-adv-x="278" d="M151 -222H51L88 -66H215L151 -222Z"  />
<glyph unicode="&#xE30D;" horiz-adv-x="278" d="M115 731H212L176 585H54L115 731Z"  />
<glyph unicode="&#xFB01;" horiz-adv-x="667" d="M118 417H19V515H118V587Q118 666 161 714Q202 761 282 762Q337 761 380 751L369 640Q360 647 347 653Q334 658 311 658Q278 657 265 634Q252 610 252 579V515H369V417H252V0H118V417ZM460 515H594V0H460V515ZM460 737H594V609H460V737Z"  />
<glyph unicode="&#xFB02;" horiz-adv-x="667" d="M118 417H19V515H118V587Q118 666 161 714Q202 761 282 762Q337 761 380 751L369 640Q360 647 347 653Q334 658 311 658Q278 657 265 634Q252 610 252 579V515H369V417H252V0H118V417ZM461 750H595V0H461V750Z"  />

</font>
</defs>
</svg>
